<?xml version="1.0" standalone="no"?>
<!DOCTYPE svg PUBLIC "-//W3C//DTD SVG 1.1//EN" "http://www.w3.org/Graphics/SVG/1.1/DTD/svg11.dtd" >
<svg xmlns="http://www.w3.org/2000/svg">
<metadata>Generated by IcoMoon</metadata>
<defs>
<font id="vcv-monosocial" horiz-adv-x="1024">
<font-face units-per-em="1024" ascent="960" descent="-64" />
<missing-glyph horiz-adv-x="1024" />
<glyph unicode="&#x20;" horiz-adv-x="512" d="" />
<glyph unicode="&#xe900;" glyph-name="stackoverflow" horiz-adv-x="850" d="M529 411v-235h-314v235h-52v-288h418v288h-52zM640 536l-89 190 48 22 88-190-47-22zM578 488l-129 165 41 32 129-165-41-32zM528 427l-162 132 33 40 162-131-33-41zM494 357l-188 91 23 47 188-91-23-47zM476 280l-203 47 11 51 204-47-12-51zM476 202h-209v52h209v-52z" />
<glyph unicode="&#xe901;" glyph-name="fivehundredpx" horiz-adv-x="850" d="M605 495q44 0 62.5-27t18.5-64q0-36-18.5-63.5t-62.5-27.5q-22 0-39 8t-29 19q-14 12-25 28-10-16-23-28-11-11-28.5-19t-41.5-8-39 7.5-23 16.5q-10 11-14 25-6-14-18-25-11-9-28.5-16.5t-46.5-7.5-46 12-26 27q-11 18-15 40h52q2-10 7-18 5-7 12.5-12.5t21.5-5.5q17 0 32 15t15 33-9.5 33.5-31.5 15.5q-11 0-18.5-4t-12.5-9q-6-5-10-12h-52l29 146h139v-48h-104l-12-55q5 5 13 9 7 3 16.5 6t23.5 3q20 0 33-7.5t21-16.5q10-11 15-24 4 15 14 27 8 10 23 18.5t39 8.5 41.5-9.5 28.5-20.5q13-13 23-30 11 17 25 30 12 11 29 20.5t39 9.5zM425 362q11 0 21.5 6.5t18.5 14.5q10 9 18 21-8 11-18 21-8 8-18.5 15t-21.5 7q-22 0-34.5-12.5t-12.5-30.5 12.5-30 34.5-12zM599 362q22 0 34 12t12 30-12 30.5-34 12.5q-11 0-21.5-7t-18.5-15q-10-10-18-21 8-12 18-21 8-8 18.5-14.5t21.5-6.5z" />
<glyph unicode="&#xe902;" glyph-name="foodspotting" horiz-adv-x="850" d="M242 408h-53v262h53v-262zM201 202v154h95v-26h-67v-36h58v-27h-58v-65h-28zM313 259q0 15 6 29 8 14 19 21t27 7q22 0 37-16 15-17 15-42 0-26-15-42-15-17-37-17-11 0-27 7-11 7-19 21-6 13-6 32zM340 258q0-16 7-26 7-9 18-9t17 9q7 8 7 26 0 17-7 25-6 9-17 9t-18-9q-7-11-7-25zM432 259q0 15 6 29 6 13 19 21 11 7 26 7 23 0 38-16 15-17 15-42 0-26-15-42-15-17-37-17-8 0-14 2t-13 5q-13 8-19 21t-6 32zM459 258q0-18 7-26 7-9 18-9 9 0 17 9 7 8 7 26 0 17-7 25-8 9-17 9-11 0-18-9-7-8-7-25zM649 202h-25v16q-7-10-15-14-8-5-17-5-17 0-29 16-13 16-13 43 0 28 12 43t31 15q17 0 29-15v55h27v-154zM578 260q0-18 4-26 5-11 18-11 10 0 16 8 6 9 6 26 0 19-6 28t-16 9-16-9q-6-8-6-25zM608 670q22 0 37-15.5t15-36.5v-157q0-22-15-37.5t-37-15.5h-262q-21 0-36.5 15.5t-15.5 37.5v157q0 21 15.5 36.5t36.5 15.5h53l26 52h104l26-52h53zM477 435q22 0 41 8t33 22 22.5 33 8.5 41-8.5 41-22.5 33-33 22.5-41 8.5-41-8.5-33.5-22.5-22.5-33-8-41 8-41 22.5-33 33.5-22 41-8zM529 539q0-22-15-37t-37-15-37 15-15 37 15 37 37 15 37-15 15-37z" />
<glyph unicode="&#xe903;" glyph-name="photobucket" horiz-adv-x="850" d="M660 597q11 0 18.5-8t7.5-19v-261q0-11-7.5-18.5t-18.5-7.5h-141q-43-26-94-26-53 0-94 26h-141q-11 0-19 7.5t-8 18.5v261q0 11 8 19t19 8q0 11 7.5 18.5t18.5 7.5h52q11 0 18.5-7.5t7.5-18.5h37q20 12 44 19t50 7 49.5-7 44.5-19h141zM297 309q-26 25-40.5 59t-14.5 72 14.5 71.5 40.5 58.5h-107v-261h107zM404 284q5-1 10.5-1h21t10.5 1q2 1 5 1l10 2t10 3q12 3 19 7 1 1 2 1t2 1q5 2 9 4.5t8 5.5q32 21 51.5 55t19.5 76q0 41-19.5 75t-51.5 55q-4 3-8 5.5t-9 4.5q-2 2-4 2-5 2-9.5 4t-9.5 4q-8 2-20 4-2 0-2.5 0.5t-2.5 0.5q-5 1-10.5 1.5t-10.5 0.5-10.5-0.5-10.5-1.5q-2 0-3-0.5t-2-0.5q-5-1-10-1.5t-10-2.5l-20-8q-1 0-3-2-5-2-9-4.5t-9-5.5q-32-21-51-55t-19-75q0-42 19-76t51-55q5-3 9-5.5t9-4.5q1-1 1.5-1t1.5-1q9-4 20-7 11-4 20-5 3 0 5-1zM660 570h-107q26-25 40.5-58.5t14.5-71.5-14.5-72-40.5-59h107v261zM529 440q0 44-30 74t-74 30v26q27 0 50.5-10t41.5-28 28-41.5 10-50.5h-26z" />
<glyph unicode="&#xe904;" glyph-name="twitterbird" horiz-adv-x="850" d="M673 603q-22-32-51-52v-14q0-50-19-101.5t-55.5-93-90.5-68-124-26.5q-44 0-83 12t-73 34q6-1 12-1.5t12-0.5q36 0 68.5 12t58.5 32q-34 1-59.5 20.5t-35.5 50.5q5-2 9.5-2h9.5q14 0 26 3-35 8-58 35.5t-23 64.5v1q11-5 22-8.5t24-3.5q-20 14-32.5 36t-12.5 48q0 28 14 51 38-46 92-74.5t117-31.5q-3 12-3 23 0 21 8 39.5t22 32.5 32.5 22 39.5 8q22 0 41-8.5t33-23.5q18 3 34 9.5t31 15.5q-12-37-45-57 32 5 59 16z" />
<glyph unicode="&#xe905;" glyph-name="stumbleupon" horiz-adv-x="850" d="M584 272h-34q-18 0-35.5 8.5t-32 23-23 32.5-8.5 36v121q0 9-2 11-1 0-4 1-6 2-17 2h-143q-8-6-11-16 2-2 6-5.5t13-8.5l65-26q26-15 43.5-43.5t17.5-54.5q0-16-7-30.5t-19-26-28-18-34-6.5h-168v78h168q3 0 5 1.5t4 3.5q-2 5-7 13.5t-13 14.5l-65 25q-8 5-18.5 12t-19.5 17-15.5 22.5-6.5 29.5q0 15 6.5 31.5t18.5 31 28 24 35 9.5h145q34 0 54-10.5t30.5-25 13.5-30.5 3-26v-121q1-5 9-13t13-9h33q5 2 13.5 11t10.5 15v262h78v-263q0-18-9-36.5t-24-33-33-24-36-9.5z" />
<glyph unicode="&#xe906;" glyph-name="grooveshark" horiz-adv-x="850" d="M425 701q54 0 101.5-20.5t83-56 56-83 20.5-101.5-20.5-102-56-83.5-83-56-101.5-20.5-102 20.5-83.5 56-56 83.5-20.5 102 20.5 101.5 56 83 83.5 56 102 20.5zM425 675q-49 0-91.5-18.5t-74.5-50.5-50.5-74.5-18.5-91.5q0-42 14-82 24-2 54 5.5t49 24.5q20 18 29 41.5t12 50 2 55 0 57.5q54-16 91.5-44t75.5-70q8-8 20.5-27.5t28-41.5 33-43.5 35.5-34.5q12 25 19 52.5t7 56.5q0 49-18.5 91.5t-50.5 74.5-74.5 50.5-91.5 18.5z" />
<glyph unicode="&#xe907;" glyph-name="appstorealt" horiz-adv-x="850" d="M425 702q54 0 101.5-20.5t83-56 56-83 20.5-101.5-20.5-102-56-83.5-83-56-101.5-20.5-102 20.5-83.5 56-56 83.5-20.5 102 20.5 101.5 56 83 83.5 56 102 20.5zM425 205q49 0 91.5 18.5t74.5 50.5 50.5 75 18.5 92-18.5 91.5-50.5 74.5-74.5 50.5-91.5 18.5-92-18.5-75-50.5-50.5-74.5-18.5-91.5 18.5-92 50.5-75 75-50.5 92-18.5zM372 598h105v-183h78l-130-131-131 131h78v183z" />
<glyph unicode="&#xe908;" glyph-name="friendsfeed" horiz-adv-x="850" d="M455 525q0 24 8 44.5t22 36 33 24.5 40 9h68v-76h-68q-10 0-18.5-10.5t-8.5-27.5v-45h76v-76h-76v-183h-76v183h-78v-183h-77v183h-76v76h76v45q0 24 8 44.5t22 36 33 24.5 40 9h69v-76h-69q-10 0-18-10.5t-8-27.5v-45h78v45z" />
<glyph unicode="&#xe909;" glyph-name="designfloat" horiz-adv-x="850" d="M298 388q5-20 13.5-32t18.5-19.5 21-12.5 21-10v-52q-29 6-50 15.5t-36 24.5-24.5 36-15.5 50h52zM372 568q-20-11-42-36.5t-32-64.5h-52q12 58 39.5 99t86.5 54v-52zM552 467q-21 80-101 101v52q59-13 99.5-53.5t53.5-99.5h-52zM532 441q0-23-8.5-42.5t-23-34-34-23-41.5-8.5q-23 0-42.5 8.5t-34 23-23 34-8.5 42.5q0 22 8.5 41.5t23 34 34 23 42.5 8.5q22 0 41.5-8.5t34-23 23-34 8.5-41.5zM425 357q35 0 59 24.5t24 59.5-24 59-59 24-59.5-24-24.5-59 24.5-59.5 59.5-24.5zM425 676q49 0 91.5-18.5t74.5-50.5 50.5-74.5 18.5-91.5-18.5-92-50.5-75-74.5-50.5-91.5-18.5-92 18.5-75 50.5-50.5 75-18.5 92 18.5 91.5 50.5 74.5 75 50.5 92 18.5zM425 229q44 0 82.5 16.5t67 45.5 45 67.5 16.5 82.5-16.5 82.5-45 67.5-67 45.5-82.5 16.5-82.5-16.5-67.5-45.5-45.5-67.5-16.5-82.5 16.5-82.5 45.5-67.5 67.5-45.5 82.5-16.5zM451 314q19 5 35.5 10t29 12.5 22 19.5 14.5 32h52q-13-59-54-86.5t-99-39.5v52z" />
<glyph unicode="&#xe90a;" glyph-name="friendstar" horiz-adv-x="850" d="M647 535q9-11 12-32.5t-2-49.5q-3-19-16-46t-38-52.5-62-44.5-87-20h-5q-63 0-104.5 39.5t-58.5 116.5q-5 25-21 39.5t-27 14.5h-49v49h67q19 0 35-8t28.5-20 21.5-26 14-26q2-4 3-7.5t3-8.5q6-15 8.5-32t11-32 26.5-26 55-14q35-2 57.5 12t36 35 19.5 43.5 8 37.5q6 32 13 48t30 18h3q11 0 18-8zM426 448q-8 1-13 5t-8 9q-8 13-10.5 30.5t2.5 34.5q7 23 15.5 27t15.5 4q8 0 16-8t14.5-21.5 5.5-28.5q-1-20-9-36.5t-25-16.5q-2 0-4 1zM511 458q-5 0-10 5t-8.5 14.5-5.5 20-2.5 21.5-0.5 20q2 23 7 33t16 12h2q7 0 14-6t12-15.5 8.5-21.5 3.5-25q0-56-35-58h-1z" />
<glyph unicode="&#xe90b;" glyph-name="googlebuzz" horiz-adv-x="850" d="M223 535q32 42 85.5 66t116.5 24q35 0 69.5-8t63.5-25l-200-184zM264 233q-11 0-19.5 1t-14.5 3q13 8 22.5 22t16.5 28l1 3 165 151 147-140q-32-23-72.5-35t-84.5-12q-17 0-33 1.5t-32 5.5l-5 1-5-2q-41-27-86-27zM455 460l127 117q38-26 58-62t20-75q0-70-57-121zM254 312q-65 54-65 128 0 36 19 72l130-123z" />
<glyph unicode="&#xe90c;" glyph-name="deviantart" horiz-adv-x="850" d="M419 372l-216-62q-16 39-14 76 1 16 5.5 32.5t15 32 28 30 44.5 25.5l-27 56 67 7 23-45h3q88 15 147.5 4t96.5-31q43-23 68-56l-216-62-50 101q18 4 35 3t32-3l21-40 73 20q-27 17-58 28-27 9-62 12t-75-8zM334 400l-33 66q-23-15-31.5-30t-10.5-27q-2-14 3-28z" />
<glyph unicode="&#xe90d;" glyph-name="foursquare" horiz-adv-x="850" d="M660 646v-177l-100-80 15-16-150-158-130 137q-22 0-41 9.5t-33.5 24.5-23 35.5-8.5 43.5q0 24 8.5 44.5t23.5 36 34.5 24.5 41.5 9q35 0 63-21.5t39-55.5l26 28 65-67 153 164zM643 604l-222-241-38 68q6 15 6 34 0 20-7 38t-19.5 31.5-29.5 21-36 7.5-36-7.5-29.5-21-19.5-31.5-7-38 7-37.5 19.5-31 29.5-21 36-7.5q8 0 15.5 2t15.5 4l90-86 225 187v129z" />
<glyph unicode="&#xe90e;" glyph-name="technorati" horiz-adv-x="850" d="M425 642q49 0 91.5-16t74.5-43 50.5-64 18.5-79-18.5-78.5-50.5-63.5-74.5-43-91.5-16q-43 0-80 12l-111-80 17 134q-29 27-45 61.5t-16 73.5q0 42 18.5 79t50.5 64 74.5 43 91.5 16zM425 328q30 0 56.5 9t46 24 31 35.5 11.5 43.5-11.5 43.5-31 35.5-46 24-56.5 9-57-9-46.5-24-31-35.5-11.5-43.5 11.5-43.5 31-35.5 46.5-24 57-9z" />
<glyph unicode="&#xe90f;" glyph-name="googletalk" horiz-adv-x="850" d="M425 666q54 0 101.5-15t83-40.5 56-59.5 20.5-73q0-55-39.5-99.5t-102.5-67.5q52 23 80 63.5t28 91.5q0 38-17 71.5t-47.5 59-72 40.5-89.5 15-91-14.5-74.5-40-50-59-18.5-70.5q0-22 6-41 20-43 65-76t105-47h1q-3-12-7-26-5-12-12-27t-19-31q41 3 71.5 16t50.5 27q24 17 40 37-23-47-60.5-69.5t-72.5-29.5q-41-9-86-4 28 18 44 44t24 47q-63 14-107 51t-61 85q0 1-2 5-4 12-6.5 24t-2.5 25q0 39 20.5 73t56 59.5 83.5 40.5 102 15zM410 618q42 0 79-11.5t64-31.5 43-46.5 16-56.5q0-43-30-77.5t-79-52.5q34 22 54 53t20 68q0 29-13.5 55.5t-36.5 47-54.5 34-68.5 17.5q2 1 6 1z" />
<glyph unicode="&#xe910;" glyph-name="designbump" horiz-adv-x="850" d="M398 529v52h-52l105 105 104-105h-52v-156zM398 320v105h105zM398 268h53v-53h-53v53zM425 451h-53v-236h-104v236h-53l105 104zM634 294h-53v-79h-104v79h-52l104 104z" />
<glyph unicode="&#xe911;" glyph-name="googleplus" horiz-adv-x="850" d="M388 452q0-15 15-27.5t32.5-27.5 32.5-36.5 15-54.5q0-51-44-90-49-41-133-41-23 0-48 5t-47 16.5-36 30.5-14 47q0 21 11 43 11 20 31 34.5t46 22.5q49 15 97 16-21 25-21 47 0 8 3 14 1 2 2 6.5t2 6.5q-6 0-11.5-0.5t-10.5-0.5q-49 0-81 31-34 31-34 78 0 44 30 79 30 36 75 45 15 3 29.5 5t29.5 2h139l-43-25h-43q24-16 35-40 12-26 12-54 0-23-7-41.5t-18-29.5q-16-17-31-30.5t-15-30.5zM341 479q31 0 44.5 19t13.5 51q0 40-20 82-10 20-27 33t-38 13q-29 0-45-22t-16-52q0-18 5.5-40t17-40.5 28-31 37.5-12.5zM337 201q18 0 36 4t32.5 12.5 23 22.5 8.5 35q0 7-1 13.5t-3 11.5-6 11q-4 5-6.5 9t-8.5 10q-4 3-9 8-2 1-4 3t-6 5l-10 7q-3 2-10 7l-10 7q-2 0-6.5 0.5t-9.5 0.5q-34 0-67-10-26-8-44-25.5t-18-47.5q0-22 11-38.5t30-26.5q35-19 78-19zM689 622v-41h-82v-81h-40v81h-81v41h81v81h40v-81h82z" />
<glyph unicode="&#xe912;" glyph-name="gowallapin" horiz-adv-x="850" d="M425 664q35 0 65.5-13.5t53.5-36.5 36.5-53.5 13.5-65.5q0-30-10-57.5t-28-49-42-37-52-21.5l-37-144-37 144q-29 6-53 21.5t-41.5 37-27.5 49-10 57.5q0 35 13 65.5t36 53.5 54 36.5 66 13.5zM425 369q26 0 49 10t40 27 27 40 10 49-10 49-27 40-40 27-49 10-49-10-40-27-27-40-10-49 10-49 27-40 40-27 49-10zM494 495q0-29-20-49.5t-49-20.5-49.5 20.5-20.5 49.5 20.5 49.5 49.5 20.5 49-20.5 20-49.5z" />
<glyph unicode="&#xe913;" glyph-name="soundcloud" horiz-adv-x="850" d="M165 393q0 26 21 44v-87q-21 16-21 43zM208 448q4 1 7.5 1.5t8.5 0.5h5v-114h-5q-5 0-8.5 0.5t-7.5 1.5v110zM256 441q3 22 17 39v-144h-22v107q1 0 5-2zM295 500q8 6 21 11v-175h-21v164zM338 515h8q10 0 14-1v-178h-22v179zM394 502q4 7 10 13v-179h-33v176q14-3 23-10zM414 526q15 13 34 20.5t40 7.5q43 0 74-28.5t36-69.5q6 2 11.5 3.5t13.5 1.5q26 0 43.5-18.5t17.5-44.5q0-24-15-42t-48-20h-207v190z" />
<glyph unicode="&#xe914;" glyph-name="feedburner" horiz-adv-x="850" d="M607 380q25-14 39-30t14-35q0-21-18.5-39.5t-50.5-32.5-75-22-91-8q-49 0-92 8t-75 22-50.5 32.5-18.5 39.5q0 20 15.5 36.5t42.5 30.5q20-66 64.5-102.5t104.5-37.5q31 0 61.5 11t56 29.5 45 44 28.5 53.5zM483 578q21-12 40-26t33.5-33 23.5-45 9-62q0-32-15-62t-39-54-55.5-38.5-64.5-14.5q-34 0-63 15.5t-50 43.5-33 67.5-12 88.5q0 35 11 75t28.5 77 40.5 68 47 48q-11-28-8.5-47.5t10.5-36.5 17.5-33 13-36.5-2.5-47.5-29-65q24-7 44.5-1t34.5 22 19.5 40.5-0.5 56.5zM415 277q51 1 82.5 24t43.5 55.5 3.5 67-39.5 58.5q-11-47-34-79.5t-61-31.5q-17 0-33.5 10.5t-28 29.5-16 45 2.5 56q-32-53-36-96.5t10.5-74.5 43-48 62.5-16z" />
<glyph unicode="&#xe915;" glyph-name="slideshare" horiz-adv-x="850" d="M504 241q-21 0-35.5 5.5t-23.5 13-12.5 15-3.5 12.5v155q0 8 16.5 12t31.5 4h83q4 0 18.5 4.5t31.5 11 32.5 14.5 22.5 16q10 11 16 11 2 0 4-2 1-2 1-8t-8-22q-11-23-31.5-35.5t-43.5-24.5q-7-3-13.5-6t-13.5-7l-1-1v-87q0-4-3-17t-11-27.5-22-25.5-35-11zM505 490q-23 0-39.5 17t-16.5 41q0 25 16.5 42t39.5 17 39.5-17 16.5-42q0-24-16.5-41t-39.5-17zM361 255q-10 0-24 6.5t-26.5 16.5-21.5 22-9 22v95h-2q-22 8-40 18-16 8-31 17.5t-21 17.5l-5 5q-11 14-15 21.5t-1 15.5q0 1 1 1 5 0 14.5-5.5t20.5-12.5q14-9 29-17.5t27-11.5q22-5 53.5-8t54.5-3h11q17 0 27.5-6.5t19.5-15.5q8-7 22.5-15t31.5-8q18 0 30 12 19 17 28 17l2-1q1-2 1-6.5t-5-15.5q-8-18-33-33.5t-54-15.5q-18 0-34 8l-3 2v-90q0-10-14-21t-34-11zM352 490q-23 0-40 17t-17 41q0 25 17 42t40 17 39.5-17 16.5-42q0-24-16.5-41t-39.5-17z" />
<glyph unicode="&#xe916;" glyph-name="wordpress" horiz-adv-x="850" d="M190 442q0 50 20 96l112-308q-59 29-95.5 85.5t-36.5 126.5zM584 454q0-31-18-76l-24-79-85 253q5 0 10 0.5t9 0.5 8 1q10 2 9 11t-10 9q-12-1-23-2-10-1-20.5-1h-39t-20.5 1l-22 2q-10 0-10.5-9.5t8.5-10.5q4-1 8-1t8-0.5 9-0.5l37-100-52-155-85 255q5 0 10 0.5t9 0.5 8 1q9 2 8.5 11t-10.5 9l-22-2q-10-1-21-1h-35q32 48 83.5 77t113.5 29q46 0 86.5-16.5t72.5-45.5h-3q-17 0-28.5-12.5t-11.5-28.5q0-15 7-28t16-28q7-11 13.5-26.5t6.5-37.5zM501 223q1-1 1-1.5t1-1.5q-39-14-78-14-17 0-34 2.5t-33 7.5l71 205zM631 555q29-52 29-113 0-66-32-119.5t-85-84.5l72 208q10 26 14 46.5t4 37.5q0 7-0.5 13t-1.5 12z" />
<glyph unicode="&#xe917;" glyph-name="yahoobuzz" horiz-adv-x="850" d="M425 496q32 0 60.5-12.5t50-33.5 34-49.5 12.5-61.5q0-32-12.5-60.5t-34-50-50-34-60.5-12.5q-33 0-61.5 12.5t-49.5 34-33.5 50-12.5 60.5v314h78v-314q0-32 23.5-55t55.5-23 55 23 23 55q0 33-23 56t-55 23h-52v78h52z" />
<glyph unicode="&#xe918;" glyph-name="githubalt" horiz-adv-x="850" d="M536 426q14 0 24.5-12t14.5-26q7-21 4.5-43t-18.5-40q-11-12-25-12-15 0-25.5 12t-15.5 26q-5 21-2.5 43t17.5 40q12 12 26 12zM314 426q14 0 24.5-12t15.5-26q6-21 3.5-43t-18.5-40q-11-12-25-12-15 0-25.5 12t-15.5 26q-5 21-2.5 43t17.5 40q12 12 26 12zM666 548q47-54 47-138 0-72-21-115-14-26-37-45.5t-49-29.5q-13-5-27.5-9.5t-31.5-7.5-31.5-4.5-27.5-2.5-27.5-1.5-30.5-0.5h-26t-23 1-24 1.5-27 2.5q-27 3-53 11-36 10-69.5 30t-49.5 55q-22 43-22 115 0 82 47 138-9 28-9 58 0 40 18 76 38 0 65-14 15-7 31-17.5t35-24.5q51 12 107 12 50 0 97-11 35 28 65 42 27 13 66 13 17-37 17-76 0-30-9-58zM596 270q17 14 28 36.5t11 52.5q0 42-24 71-22 29-64 29-8 0-24.5-1.5t-43.5-5.5q-12-2-26-3t-28-1q-15 0-29 1t-26 3q-26 4-42.5 5.5t-24.5 1.5q-42 0-65-29-24-29-24-71 0-30 11-52.5t28-36.5q18-13 42-20 26-8 49-10.5t51-2.5h59q29 0 51.5 2.5t48.5 10.5q24 7 42 20z" />
<glyph unicode="&#xe919;" glyph-name="delicious" horiz-adv-x="850" d="M634 441h-209v209h209v-209zM425 232h-210v209h210v-209z" />
<glyph unicode="&#xe91a;" glyph-name="sharethis" horiz-adv-x="850" d="M577 372q35 0 59-24.5t24-59.5q0-34-24-58.5t-59-24.5-59 24.5-24 58.5q0 4 1 5l-169 85q-23-20-53-20-35 0-59 24t-24 59 24 59 59 24q15 0 28.5-5.5t24.5-14.5l169 84q-1 2-1 5 0 35 24 59t59 24 59-24 24-59-24-59-59-24q-30 0-53 20l-169-85q0-1 0.5-2t0.5-2q0-2-0.5-2.5t-0.5-2.5l169-84q23 20 53 20z" />
<glyph unicode="&#xe91b;" glyph-name="instagram" horiz-adv-x="850" d="M607 475h-41q5-18 5-36 0-30-11.5-57t-31.5-47-47-31.5-57-11.5-56.5 11.5-46.5 31.5-31.5 47-11.5 57q0 18 5 36h-42v-201q0-8 5.5-13t13.5-5h329q8 0 13 5t5 13v201zM607 603q0 8-5 13.5t-13 5.5h-55q-8 0-13-5.5t-5-13.5v-54q0-8 5-13.5t13-5.5h55q8 0 13 5.5t5 13.5v54zM424 530q-38 0-64.5-26.5t-26.5-64.5q0-19 7-36t19.5-29.5 29-19.5 35.5-7 36 7 29.5 19.5 19.5 29.5 7 36-7 35.5-19.5 29-29.5 19.5-36 7zM241 201q-23 0-38.5 16t-15.5 39v366q0 23 15.5 39t38.5 16h366q23 0 39-16t16-39v-366q0-23-16-39t-39-16h-366z" />
<glyph unicode="&#xe91c;" glyph-name="pinterest" horiz-adv-x="850" d="M407 300q-4 3-7 9.5t-8 2.5q-9-36-21-75t-29-68h-32v1q-3 15-1.5 39t3.5 38q3 18 9 38.5t13 41.5 11.5 42 4.5 39q0 16-5 32.5t-2 33.5q2 16 13.5 30t26 21 28.5 3.5 22-21.5q9-21 2.5-44t-14.5-45-11-41 13-34q7-6 21-9.5t28-0.5q22 4 38 21t25.5 40 12 50.5-1.5 53-15.5 46-29.5 31.5q-40 23-80 19t-71.5-25-49.5-54.5-14-70.5q1-14 8-25.5t11.5-22 4-21-13.5-22.5q-37 14-52.5 40t-14.5 68q0 44 19.5 79t52 58.5 75 34 88.5 5.5q30-3 57-15.5t48-31.5 34.5-43.5 16.5-50.5q3-24 0-49.5t-11-50.5-21-46-31-36q-12-10-31-18t-40-11-42-0.5-37 14.5z" />
<glyph unicode="&#xe91d;" glyph-name="posterous" horiz-adv-x="850" d="M250 175v395q0 35-1 64t-2 56h54l4-65h5l3 2q41 71 132 71 35 0 64-14t50-38.5 32.5-59 11.5-76.5q0-52-15-90t-39-62.5-54.5-36.5-61.5-12q-38 0-67.5 15.5t-46.5 42.5l-1 2h-6l-1-4v-190h-61zM424 651q-39 0-69-24.5t-40-63.5q-4-16-4-28v-66q0-17 3-29 10-38 39.5-61t67.5-23q54 0 86.5 40.5t32.5 109.5q0 32-8.5 58.5t-24 46-37 30-46.5 10.5z" />
<glyph unicode="&#xe91e;" glyph-name="wikipedia" horiz-adv-x="850" d="M367 540q-2 5-4 9t-3 7-2 5q-6 13-9.5 20t-6.5 11-6.5 5.5-9.5 2.5q-6 0-6 3v11l1 2h93l3-1v-11q0-4-5-4l-7-1q-13-2-12-8.5t9-25.5l108-244 4-1 95 251q6 14-1 21-4 3-7.5 5t-11.5 2l-9 1q-2 0-3 1t-1 3v11l1 1h108l1-1v-11q0-4-4-4-22-2-32-10-5-5-9-11.5t-6-14.5l-48-120q-10-24-20-49.5t-19.5-49-17.5-43.5-14-34q-16-37-32 0-8 18-21 50.5t-27 64.5q-16 37-33 79zM540 616h-88l-1-1v-11q0-2 1-3t3-1l5-1q14 0 17-5 2-3 2.5-7.5t-4.5-15.5l-114-251-3 1q-23 55-43 103-9 21-18 42.5t-17 41.5-15 37-11 29q-4 9-4 15 0 10 16 10l12 1q5 0 5 4v10l-1 1h-118l-1-1v-11q0-3 7-3 20-2 25-7 2-3 5.5-9.5t7.5-17.5q11-30 27.5-69t33.5-80 33.5-80.5 28.5-69.5q7-17 15-18t18 19q8 18 23 50t29 64q17 37 35 79l49 103q5 8 8.5 15t5.5 10q5 7 8.5 8.5t14.5 2.5q4 0 4 4v11z" />
<glyph unicode="&#xe91f;" glyph-name="linkedin" horiz-adv-x="850" d="M190 582h104v-340h-104v340zM589 561q31-17 51-51.5t20-70.5v-197h-105v197q0 8-6 18t-11 13q-8 5-22 5t-22-4l-43-21v-208h-105v340h105v-16q31 14 70 13t68-18zM242 713q22 0 37-15t15-37-15-37.5-37-15.5-37 15.5-15 37.5 15 37 37 15z" />
<glyph unicode="&#xe920;" glyph-name="emberapp" horiz-adv-x="850" d="M593 390l14 16q-5-21-13.5-42t-23.5-39q-47-61-146-64-109 4-162 104v5q2 18 7.5 45.5t25.5 53.5q17 23 39.5 43.5t44.5 39.5q21 17 38 32.5t27 30.5q19-15 43-35.5t45.5-44.5 37-49 17.5-48zM626 528q-1 5 3-15.5t4.5-54.5-6-75-28.5-77-64-61.5-111-27.5q-19 1-47.5 6.5t-58.5 24-57.5 54.5-45.5 97q3-4 7-6 7-5 14-2 4 1 5 13.5t4 31.5 10 41.5 23 44.5q20 27 46.5 50t50.5 43.5 41.5 38.5 18.5 34q45-33 82-68 32-30 59-67t32-72q6 8 10 16 4 7 6.5 15t1.5 16zM608 412q0 12 2 22.5t1 21.5l2-1-20-24-6 48q-2 23-17.5 48t-37 49-45.5 45-43 36q-10-15-27-31t-38-33q-22-19-44-39t-39-43q-20-27-25.5-54.5t-7.5-45.5q-2-11-2.5-18.5t-5.5-12.5v-1q-2-2-2-3t-3-3q3-7 10.5-13.5t7.5-13.5q20-52 61.5-79.5t98.5-29.5q50 2 83.5 18t57.5 46q19 24 29 53t10 58z" />
<glyph unicode="&#xe921;" glyph-name="slashdot" horiz-adv-x="850" d="M529 646l-183-418h-104l183 418h104zM542 358q28 0 47-19t19-46-19-46-47-19q-27 0-46 19t-19 46 19 46 46 19z" />
<glyph unicode="&#xe922;" glyph-name="icondock" horiz-adv-x="850" d="M425 198q-12 0-22 10l-141 155q-9 10-14 12l-6 5-3-7q-2-5-7-12.5t-11-13.5-10-6q-5 0-8.5 4t-4.5 15l-8 75q-2 13 6 21 7 8 20 8h4l77-7q16-2 19-10 1-2 0.5-5t-5.5-7q-13-14-27-18l-7-3 4-6q2-2 5.5-5t8.5-8l65-56q8-6 14-6 11 0 11 17v150l-3 1q-23 12-36 33t-13 46q0 18 7 34.5t19.5 28.5 29.5 19 36 7 36-7 29.5-19 19.5-28.5 7-34.5q0-24-12-44t-34-33l-3-1v-149q0-17 12-17 4 0 7.5 2t5.5 4l62 53q10 9 13 13l5 6-8 3q-13 4-27 18-7 7-4 12 2 8 18 10l78 7h3q13 0 20-8 9-9 7-21l-8-75q-3-19-13-19-5 0-10 6-7 6-12 13.5t-7 12.5l-2 7-7-5q-5-2-13-12l-141-155q-10-10-22-10zM425 634q-23 0-39.5-16t-16.5-38q0-23 16.5-38.5t39.5-15.5 39 15.5 16 38.5q0 22-16 38t-39 16z" />
<glyph unicode="&#xe923;" glyph-name="identica" horiz-adv-x="850" d="M383 664q31 0 58.5-12.5t48-33.5 32.5-49 12-60-12-60.5-32.5-49.5-48-33-58.5-12q-34 0-60 13l-107-35 28 115q-12 28-12 62 0 32 12 60t32.5 49 48 33.5 58.5 12.5zM385 402q21 0 39.5 8t32 22 21.5 33 8 41q0 21-8 40t-21.5 33.5-32 22.5-39.5 8-39.5-8-32-22.5-21.5-33.5-8-40q0-22 7-37l-23-85 72 29q20-11 45-11zM533 472q21 0 39.5-8t32-22 21.5-33 8-41q0-29-15-53.5t-39-37.5l-23-69-45 60q-35 8-57 35.5t-22 64.5q0 22 8 41t21.5 33 31.5 22 39 8zM558 323q13 7 20.5 19t7.5 28q0 23-15.5 38.5t-37.5 15.5-37-15.5-15-38.5q0-20 12-35t31-18l20-34z" />
<glyph unicode="&#xe924;" glyph-name="imessage" horiz-adv-x="850" d="M425 675q49 0 91.5-16t74.5-43.5 50.5-65 18.5-79.5-18.5-79.5-50.5-65.5-74.5-44-91.5-16q-21 0-41 3.5t-39 9.5q-31-22-79-22-18 0-33 3 20 2 35 14.5t19 31.5q-45 28-71 71t-26 94q0 42 18.5 79.5t50.5 65 74.5 43.5 91.5 16z" />
<glyph unicode="&#xe925;" glyph-name="mobileme" horiz-adv-x="850" d="M625 445q21-7 41-22t20-46q0-15-7-32.5t-18.5-32.5-27.5-24.5-34-9.5h-348q-18 0-34 8.5t-28 22.5-19 32-7 36q0 19 8.5 32.5t21 22.5 27 13 26.5 4q9 0 13-1v5q0 34 21.5 58t51.5 24q16 0 29.5-7t24.5-19q11 36 44 59.5t75 23.5q25 0 48-9.5t39.5-25.5 26.5-37.5 10-45.5q0-8-1-15t-3-14z" />
<glyph unicode="&#xe926;" glyph-name="newsvine" horiz-adv-x="850" d="M451 178h-52v110l-63 47q-8-5-17-5-16 0-26.5 10.5t-10.5 26.5q0 15 10.5 26t26.5 11q15 0 25.5-11t10.5-26q0-2-0.5-3t-0.5-3l45-34v110l-63 47q-8-5-17-5-16 0-26.5 10.5t-10.5 26.5q0 15 10.5 26t26.5 11q15 0 25.5-11t10.5-26q0-2-0.5-3t-0.5-3l45-34v104l-64 46q-7-4-16-4-16 0-26.5 10.5t-10.5 26.5q0 15 10.5 26t26.5 11q15 0 25.5-11t10.5-26q0-2-0.5-3.5t-0.5-3.5l45-33v82h52v-156l44 33q0 2-0.5 2.5t-0.5 2.5q0 15 10.5 26t26.5 11q15 0 26-11t11-26-10.5-26-26.5-11q-10 0-18 5l-62-45v-103l44 33q0 1-0.5 2t-0.5 2q0 16 10.5 26.5t26.5 10.5q15 0 26-10.5t11-26.5q0-15-10.5-26t-26.5-11q-10 0-19 6l-61-46v-109l44 33q0 1-0.5 2t-0.5 2q0 15 10.5 26t26.5 11q15 0 26-11t11-26-10.5-26-26.5-11q-10 0-19 6l-61-45v-37z" />
<glyph unicode="&#xe927;" glyph-name="metacafe" horiz-adv-x="850" d="M548 278l-69-53 27 86-69 52h85l26 80 27-80h85l-69-52 26-86zM486 306q-2-6-8-24.5t-13-38.5l-275 198h274l84 255 106-314h-67q-2 0-8.5 18t-13.5 40q-8 26-17 59-9-33-17-59-7-22-13-40t-8-18h-125q25-18 45-34 17-14 33.5-26t22.5-16z" />
<glyph unicode="&#xe928;" glyph-name="appstore" horiz-adv-x="850" d="M417 560q5-2 6-7t-1-9l-144-250q-6-11-16-4l-31 17q-4 3-5.5 7.5t1.5 9.5l143 249q2 5 7 6t9-1zM252 276q11-6 0-13l-39-27q-5-3-7.5-1.5t-1.5 6.5l5 47q2 11 12 6zM457 490l45-105h-143l67 105h31zM229 385h-54q-5 0-8.5 3t-3.5 8v85q0 5 3.5 7t8.5 2h119zM674 490q12 0 12-9v-85q0-11-12-11h-52l-53 105h105zM590 398q6-10-1.5-18t-13.5-10q-7-3-12-4.5t-14 3.5q-5 2-17 26.5t-26.5 55-27.5 60.5-19 44-16.5 37-19.5 46-13.5 40.5 1.5 20.5q4 2 13-10t20-30.5 23.5-40 23.5-38.5q11-18 27-46.5t31-57 26.5-51 14.5-27.5zM608 299q-5-2-10.5-1t-7.5 6l-19 29q-3 5-2 10t6 7l18 9q11 6 18-6l14-28q3-5 1.5-10.5t-6.5-7.5zM614 291q20 11 29.5 2.5t12.5-23.5q4-18 2-44-2 5-7.5 8t-12.5 6-14.5 7-12.5 11q-10 14-5.5 22t8.5 11z" />
<glyph unicode="&#xe929;" glyph-name="facebook" horiz-adv-x="850" d="M491 550q-7 0-17-6.5t-10-19.5v-26h79v-104h-79v-210h-104v210h-79v104h79v52q0 20 9 39t25.5 33.5 38.5 23.5 48 9h88v-105h-78z" />
<glyph unicode="&#xe92a;" glyph-name="coroflot" horiz-adv-x="850" d="M528 447q40 0 68-28t28-68q0-19-7-36t-19.5-29.5-29-20.5-35.5-9q4 13 4 31 0 42-23.5 75.5t-61.5 47.5q14 17 33.5 27t42.5 10zM406 390q21 0 40-8t33-22 22-33 8-40-8-40-22-33-33-22-40-8-40 8-33 22-22 33-8 40 8 40 22 33 33 22 40 8zM375 304q10 0 16.5 6.5t6.5 16.5q0 9-6.5 15.5t-16.5 6.5-16.5-6.5-6.5-15.5q0-10 6.5-16.5t16.5-6.5zM364 411q1 33-4.5 60.5t-15 46.5-22.5 29-28 9q-29-3-50-1t-18 17q1 7 7 8.5t12.5 1.5 12.5 2 7 12q1 9-0.5 16t-2 13 2.5 11 13 10q9 5 15.5 2.5t10-10.5 4.5-19.5 0-23.5q34 8 65.5-5t56.5-35.5 43.5-47 27.5-39.5q-5-2-9.5-3t-9.5-3q-25 39-48 62t-43 35-37 14.5-29 1.5q22-17 35.5-40.5t21-46.5 10-42.5 2.5-27.5q-18-2-30-7z" />
<glyph unicode="&#xe92b;" glyph-name="blogger" horiz-adv-x="850" d="M660 471l-1-120q0-31-12-58t-32-47-47-31.5-58-11.5h-171q-31 0-58 11.5t-47.5 31.5-32.5 47-12 58v173q0 31 12 58t32.5 47 47.5 32 58 12h104q14-2 31-8.5t33-17 29.5-25 21.5-30.5q2-5 4-8t3.5-8 3-13 3.5-21l3.5-24.5t8.5-16.5q4-4 13.5-5t19.5-1 19-0.5 12-3.5l7-5 4-8zM341 552q-12 0-20.5-8.5t-8.5-20.5q0-11 8.5-19.5t20.5-8.5h82q12 0 20.5 8.5t8.5 19.5q0 12-8.5 20.5t-20.5 8.5h-82zM509 325q11 0 19.5 8.5t8.5 19.5q0 12-8.5 20.5t-19.5 8.5h-168q-12 0-20.5-8.5t-8.5-20.5q0-11 8.5-19.5t20.5-8.5h168z" />
<glyph unicode="&#xe92c;" glyph-name="twitter" horiz-adv-x="850" d="M608 258q0-20-16.5-36.5t-36.5-16.5h-156q-30 0-58 10t-50 29.5-35.5 49-13.5 68.5v262q0 20 16 36t36 16 36-16 16-36v-79h209q20 0 36.5-16t16.5-36-16.5-36-36.5-16h-209v-79q0-20 16.5-36t35.5-16h157q20 0 36.5-16t16.5-36z" />
<glyph unicode="&#xe92d;" glyph-name="diggalt" horiz-adv-x="850" d="M242 611h52v-261h-131v183h79v78zM242 402v78h-27v-78h27zM372 559h-52v52h52v-52zM372 350h-52v183h52v-183zM398 533h131v-262h-131v53h79v26h-79v183zM451 402h26v78h-26v-78zM555 533h131v-262h-131v53h79v26h-79v183zM608 402h26v78h-26v-78z" />
<glyph unicode="&#xe92e;" glyph-name="squidoo" horiz-adv-x="850" d="M658 372q5-36-6-67.5t-31.5-55-46.5-37.5-51-14q-48 0-83.5 17t-54.5 64q-7 17-7 36t-2.5 34.5-12.5 26-37 9.5q-34-2-71.5-4t-65.5 6v55q0-4 5.5-6.5t11.5-3.5q17-2 40.5 0.5t45.5 6.5q26 4 52 10-32 12-58 31-23 17-45 43t-31 64q-3 11-5.5 20.5t-5.5 17.5q10 16 25 28 5-15 8.5-30t9-28.5 14.5-25 25-18.5q21-9 38.5-14.5t31.5-8.5q15-4 28-4-1 21-5 40-4 17-12 33.5t-25 25.5q-14 8-31 19t-33 27q3 0 6-1t7-1h41q32-13 53.5-32t35-38 20-35 6.5-24q18 14 30 30 11 13 16.5 29t-2.5 31-20 27-26 12h54q16-7 26-19t14.5-26.5 2.5-30.5-9-29q-20-36-24.5-58.5t20.5-23.5q12-1 32.5-4.5t41.5-14.5 38-32 22-57zM605 315q7 19 6.5 38t-7.5 35.5-20 28.5-31 18-36 4-34.5-11-29-24-19.5-34q-7-20-6.5-39t7.5-35.5 20-28.5 31-18 36-3.5 34.5 11.5 29 23.5 19.5 34.5zM551 384q13-4 21.5-15.5t8.5-26.5q0-18-11-30.5t-28-12.5-28.5 12.5-11.5 30.5q0 8 3 16 9-1 18-0.5t15 5.5q8 5 13 21z" />
<glyph unicode="&#xe92f;" glyph-name="spotify" horiz-adv-x="850" d="M427 377q43 0 82-11.5t72.5-32 60-49.5 44.5-64q-29-27-68-27h-46q-24 34-62 54t-83 20-82.5-20-61.5-54h-65q-30 0-55 17 17 37 44 67.5t61.5 52.5 74.5 34.5 84 12.5zM245 409q-4 11 0 16.5t7 7.5q38 17 79.5 27t86.5 10q44 0 85-8.5t78-27.5q6-2 10-9.5t0-15.5q-7-16-24-8-34 15-71.5 23.5t-77.5 8.5q-81 0-152-34-4-2-10.5-1t-10.5 11zM656 606q0-12-8.5-20.5t-20.5-8.5q-2 0-3 0.5t-3 0.5q-48 19-98.5 29t-104.5 10-104.5-10-98.5-29q-2 0-3-0.5t-3-0.5q-12 0-20 8.5t-8 20.5q0 16 13 24 53 20 108.5 31t115.5 11q59 0 114.5-11t107.5-31q16-7 16-24zM617 520q7-7 7-14l-4-12q-6-8-16-8-2 0-2.5 0.5t-2.5 0.5q-42 18-87 28t-94 10q-95 0-180-37-2-1-6-1-10 0-16 8l-4 11q0 7 7 14 46 20 95.5 31t103.5 11 103.5-11 95.5-31z" />
<glyph unicode="&#xe930;" glyph-name="smugmug" horiz-adv-x="850" d="M378 660q0-14-13.5-24.5t-33.5-10.5-34 10.5-14 24.5q0 15 14 25.5t34 10.5 33.5-10.5 13.5-25.5zM543 696q-20 0-33.5-10.5t-13.5-25.5q0-14 13.5-24.5t33.5-10.5 33.5 10.5 13.5 24.5q0 15-13.5 25.5t-33.5 10.5zM634 554h-403q-4-1-8-4t-7.5-8-8.5-14q-21-44-26-96.5t13.5-99 63-77.5 122.5-31q52 0 93.5 19t73.5 48.5 55.5 65 38 68 21.5 57.5 7 34q0 13-5.5 20.5t-12.5 11.5q-8 4-17 6zM380 271q-16 0-34.5 2.5t-36.5 9-34 18-27 29.5q-12 20-17 43.5t-4 47.5 7.5 46 15.5 40h370q-3-12-11-34t-21.5-48-33-53.5-45-50-58-36.5-71.5-14z" />
<glyph unicode="&#xe931;" glyph-name="aboutme" horiz-adv-x="850" d="M163 336v209h32v-29q11 16 27 24 16 10 37 10 25 0 39-10 15-9 21-27 25 37 65 37 32 0 49-17 17-19 17-53v-144h-36v132q0 21-3 30-5 11-13 15-9 6-22 6-22 0-37-15-14-13-14-46v-122h-36v136q0 23-9 35t-29 12q-14 0-28-8-14-9-18-23-6-15-6-43v-109h-36zM648 404l37-5q-9-32-32-50-25-17-61-17-47 0-74 28t-27 79q0 53 28 82 27 29 71 29 42 0 69-29t27-80v-9h-158q1-35 20-53 18-18 44-18 21 0 34 10t22 33zM530 461h118q-1 24-13 39-18 21-45 21-24 0-41-17-18-18-19-43z" />
<glyph unicode="&#xe932;" glyph-name="viddler" horiz-adv-x="850" d="M546 655q24 0 44.5-9t36-25 24.5-37 9-46-9-46.5-24.5-37-36-24.5-44.5-9h-91l56-183h-191v56l-130-41v159l130-37v46h-26q-20 0-38 9t-32 24-22.5 36-8.5 45q0 25 10.5 46.5t28 38 40 26 46.5 9.5q21 0 40-8.5t34-23 25-33 13-38.5h4q3 20 13 38.5t25 33 34 23 40 8.5zM318 502q14 0 23 10t9 24-9 23.5-23 9.5-23-9.5-9-23.5 9-24 23-10zM549 502q14 0 23 10t9 24-9 23.5-23 9.5-23-9.5-9-23.5 9-24 23-10z" />
<glyph unicode="&#xe933;" glyph-name="retweet" horiz-adv-x="850" d="M346 598h236q11 0 18.5-6t7.5-17v-160h78l-131-131-130 131h78v104h-78zM268 284q-10 0-18 8t-8 18v157h-79l131 131 131-131h-79v-105h79l78-78h-235z" />
<glyph unicode="&#xe934;" glyph-name="myspace" horiz-adv-x="850" d="M279 572q-17 0-29 12t-12 29 12 29 29 12 29-12 12-29-12-29-29-12zM383 559q-23 0-38.5 15.5t-15.5 38.5 15.5 38.5 38.5 15.5 38.5-15.5 15.5-38.5-15.5-38.5-38.5-15.5zM520 542q-29 0-50 21t-21 50 21 49.5 50 20.5 49.5-20.5 20.5-49.5-20.5-50-49.5-21zM522 515q20 0 38-7.5t31.5-20.5 21.5-30.5 8-37.5v-180h-209v105h-104v78h-79v81q0 20 15 35t36 15q17 0 30.5-10.5t17.5-27.5q21 26 56 26 25 0 44-15.5t26-38.5q13 13 30.5 20.5t37.5 7.5z" />
<glyph unicode="&#xe935;" glyph-name="windows" horiz-adv-x="850" d="M352 277q-17 11-37.5 19.5t-48.5 8.5q-35 0-76-16l41 143 12 4q11 4 28 8t36 6q3 1 9 1 29 0 63-17 5-2 8.5-5t8.5-5q-3-10-8.5-29t-12-41-13-43-10.5-34zM476 225q-12 0-25 3.5t-25 8.5-21.5 9.5-13.5 7.5l41 144q15-11 38.5-19.5t56.5-8.5q38 0 77 13l-40-138q-47-20-88-20zM407 472q-16 10-36 18.5t-47 8.5q-35 0-79-16l41 142q22 9 41.5 13t37.5 5q20 0 35-4 14-3 28.5-10.5t21.5-11.5zM537 417q-50 0-91 28l42 145q15-11 38.5-19.5t55.5-8.5q37 0 78 15l-41-140h-1v-1q-41-19-81-19z" />
<glyph unicode="&#xe936;" glyph-name="dribble" horiz-adv-x="850" d="M425 204q-49 0-92 18.5t-75 50.5-50.5 75-18.5 92q0 48 18.5 91t50.5 75 75 50.5 92 18.5q48 0 91-18.5t75-50.5 50.5-75 18.5-91q0-49-18.5-92t-50.5-75-75-50.5-91-18.5zM311 280q49-36 114-36 32 0 61 10-6 73-29 142-45-15-82.5-44.5t-63.5-71.5zM496 406q10-32 17-66t11-69q36 21 60.5 54.5t32.5 75.5q-18 5-35.5 7.5t-34.5 2.5q-23 0-51-5zM229 431q3-72 52-124 29 45 71 77t92 49q-4 13-11 28-43-16-87.5-23.5t-89.5-7.5h-12.5t-14.5 1zM547 450q36 0 74-9 0 60-35 109-54-47-117-75 4-8 7-16t7-16q16 4 32 5.5t32 1.5zM231 470q6-1 12-1h13q82 0 159 27-34 63-80 118-42-22-69.5-60t-34.5-84zM374 629q23-28 42.5-57.5t35.5-60.5q29 13 56 30.5t53 38.5q-28 27-63 41.5t-73 14.5q-13 0-26-2t-25-5z" />
<glyph unicode="&#xe937;" glyph-name="behance" horiz-adv-x="850" d="M402 563q13-19 13-48t-13-46q-4-5-9-9t-13-9q23-9 33-28 12-18 12-45t-13-50q-9-16-20-25-13-11-33-16-9-2-19-3t-21-1h-130v314h139q53-2 74-34zM268 544v-78h48q10 0 17.5 3.5t13.5 7.5q11 8 11 30 0 11-3.5 19t-11.5 11q-7 3-15 5t-19 2h-41zM268 414v-79h48q17 0 29 7 19 10 19 39 0 13-4.5 19.5t-13.5 11.5q-5 2-12.5 2h-65.5zM608 508q20-10 34-33 6-10 10-20.5t6-24.5q0-4 0.5-11t0.5-14q0-9 1-18h-144q1-20 6-30.5t15-17.5q5-4 12.5-6.5t15.5-2.5q9 0 16 4t13 9q3 3 5.5 3.5t4.5 14.5h53q-1-14-6-23t-13-20q-14-16-32.5-25t-41.5-9q-40 0-70 27t-30 88q0 57 27 89 27 30 71 30 26 0 46-10zM531 453q-5-7-8.5-13t-5.5-26h89q-1 20-4 26.5t-10 12.5q-12 12-30 12-21 0-31-12zM608 544h-105v53h105v-53z" />
<glyph unicode="&#xe938;" glyph-name="podcast" horiz-adv-x="850" d="M425 597q-48 0-90-15t-73.5-41.5-50.5-63.5-21-81v9q0 45 18.5 84.5t50.5 69.5 74.5 47 91.5 17 91.5-17 74.5-47 50.5-69.5 18.5-84.5v-9q-2 44-21 81t-50.5 63.5-73.5 41.5-90 15zM425 518q-30 0-56.5-9t-46.5-24.5-32-38-14-49.5v8q0 28 11.5 53.5t32 44.5 47.5 30 58 11 58-11 47-30 32-44.5 12-53.5q0-5-1-8-2 27-14 49.5t-32 38-46 24.5-56 9zM425 398q-20 0-33.5 12.5t-13.5 30.5 13.5 30.5 33.5 12.5q19 0 32.5-12.5t13.5-30.5-13.5-30.5-32.5-12.5zM425 205q-29 0-49 34.5t-20 83.5q0 25 5.5 38.5t15 20 22 7.5 26.5 1 26.5-1 22-7.5 15-20 5.5-38.5q0-49-20-83.5t-49-34.5z" />
<glyph unicode="&#xe939;" glyph-name="youtube" horiz-adv-x="850" d="M214 687h43l28-97h3l27 97h43l-50-142v-100h-43v96zM361 583q0 21 16 33 15 12 41 12 25 0 39-13 15-14 15-33v-93q0-23-14-35-16-14-41-14t-41 14q-15 13-15 36v93zM401 487q0-8 4-12 2-2 4.5-3t7.5-1q7 0 12 5 4 3 4 11v97q0 6-4 9-4 4-12 4t-12-4q-4-3-4-9v-97zM613 624v-179h-39v20q-9-11-22-17-11-6-22-6-12 0-20 8-7 10-7 24v150h39v-137q0-8 2-9 3-3 8-3 3 0 11 3 8 6 11 10v136h39zM307 440h-117v-31h39v-188h38v188h40v31zM385 260q-4-6-11-9-5-3-9-3-3 0-7 2-2 4-2 9v124h-34v-136q0-14 6-21 6-8 18-8 10 0 19 6 11 5 20 15v-18h34v162h-34v-123zM534 375q-10 10-25 10-8 0-16-4-5-2-14-11v70h-34v-219h34v12q3-4 6.5-6.5t7.5-4.5q9-3 18-3 15 0 23 9 8 8 8 26v90q0 20-8 31zM507 259q0-8-3-11-3-4-9-4-2 0-8 2-3 1-8 6v101q3 3 7 5 2 1 7 1 7 0 11-4 3-5 3-13v-83zM660 298v41q0 22-12 36-14 12-36 12-24 0-37-13-15-14-15-35v-72q0-22 13-37 14-14 36-14 25 0 38 13 13 12 13 38v8h-35v-8q0-14-3-18-4-4-12-4t-12 5q-3 4-3 17v31h65zM595 340q0 10 4 14 3 5 11 5 7 0 12-5 3-5 3-14v-17h-30v17z" />
<glyph unicode="&#xe93a;" glyph-name="gowalla" horiz-adv-x="850" d="M363 311q-5-22-5-50t8-52h-25q-7 26-7 54t4 50q-9 2-17.5 3t-15.5 3q0-17-5-32-3-10-13.5-14.5t-21.5-4.5q-18 0-29 10.5t-11 27.5q0 29 23 49.5t56 44.5l11 7q17 12 19 28.5t-1 30.5q-21-29-39-47t-33.5-27.5-27.5-12.5-20-3q-24 0-38 17-16 19-11 45 3 17 15 34.5t28 33 32.5 29 27.5 21.5q-15 12-32.5 28t-32 33.5-23.5 35.5-9 34q0 23 19 33 19 12 38 12 14 0 26-6t22-14q10 41 28 54.5t34 13.5h5q19-2 31-17 10-13 13-34t2.5-45-3.5-50-6-48l-1-5q120-20 185.5-74t84.5-151q3-12 3-24 4-4 8-7.5t8-6.5q5-5 9.5-8.5t9.5-8.5q-2-15-7-26-7 5-14 11.5t-14 12.5l-1 1q-7-38-30-59.5t-46-31.5h-40l-15 13 26 5q1 0 13.5 3.5t27.5 13.5 27.5 28 13.5 47q-12 10-22 13-14 4-32 7.5t-37 3.5q-51 0-67-33-12-24-14.5-51.5t4.5-49.5h-25q-7 26-3.5 56t16.5 56q23 47 89 47 20 0 39.5-3.5t35.5-8.5l6-2t7-3q-17 91-80 140.5t-182 66.5l-12 1 4 31q3 18 6 41.5t4 46-1 41-10 28.5q-4 6-13 8-10 1-17.5-5t-13-16-8.5-21.5-5-21.5l11-11q39-41 33-66-1-5-4.5-11t-13.5-11q-8-3-15-3-20 0-30 16.5t-10 36.5q0 4 0.5 15t2.5 26q-18 17-33.5 22.5t-35.5-6.5q-7-4-7-13 0-11 9.5-27t24-33 32.5-33 35-27l17-10-17-11q-10-7-27-19.5t-34-28.5-30-32.5-16-31.5q-2-14 5-24 8-8 20-8 4 0 14.5 2.5t25 12.5 33 29.5 40.5 54.5l11 18 10-19q5-9 9-23.5t3.5-30-7.5-31-23-27.5l-11-8q-11-8-21-15t-18-14l15-3q1 0 16-3.5t33-5.5q1 4 5 12 8 17 22.5 25.5t26.5 8.5q20 0 25-17 3-8 2-15.5t-5-14.5q-12-20-39-24-10-2-17-2zM370 339q0-2-1-2h7q15 3 22 13 3 4 1 9h-2q-5 0-13.5-4.5t-13.5-15.5zM292 642q0-10 4-19t11-9q2 0 3 0.5t3 0.5l4 4q0 3-4.5 13t-20.5 27v-17zM275 296q2 8 2 20.5v31.5q-27-22-27-42 0-13 15-13 5 0 7 1t3 2z" />
<glyph unicode="&#xe93b;" glyph-name="picasa" horiz-adv-x="850" d="M531 677v-175q0 2-14 16t-35.5 33.5-47 42-47.5 42-37 33-17 14.5q45 17 91 17 28 0 57.5-6t49.5-17zM295 215v225q-29-27-53-48-20-18-37-34t-18-17q16-39 42.5-71.5t65.5-54.5zM164 438q0-17 2.5-34t7.5-34q2 1 19.5 17t43 39.5 54.5 50 54 49.5 42.5 38.5 18.5 16.5q-2 1-17 15t-33 30.5-33 30-16 14.5q-66-34-104.5-96t-38.5-137zM321 334v-135q40-18 81-22h48q68 7 124.5 43t86.5 114h-340zM557 662v-302h116q7 20 9.5 40t2.5 42q0 69-34.5 126.5t-93.5 93.5z" />
<glyph unicode="&#xe93c;" glyph-name="tumblr" horiz-adv-x="850" d="M451 687v-105h104v-78h-104v-130q0-21-1-33t1-18q7-14 18-21 16-9 38-9 37 0 75 23v-74q-17-7-31-12t-27-8q-27-6-56-6-17 0-29 2t-25 7q-14 4-25.5 9.5t-19.5 13.5q-17 16-20 35.5t-3 45.5v175h-78v57q15 5 30 11t26 15q23 18 34 40 13 25 17 60h76z" />
<glyph unicode="&#xe93d;" glyph-name="forrst" horiz-adv-x="850" d="M640 226h-194v86l87 43v21l-87-43v43l43 22v21l-43-21v42h-43v-85l-65 21v-21l65-22v-107h-194l216 471 215-471z" />
<glyph unicode="&#xe93e;" glyph-name="meetup" horiz-adv-x="850" d="M246 374q-9 25-16 49t-12 48q-5-8-6-18.5t-1-21.5q-1-12-1.5-24t-4.5-20l-2 1q-4 0-6.5-0.5t-5.5-0.5q-4-1-12-1h-5q-2 4-4.5 8t-4.5 8q-5 7-9 13.5t-9 13.5q-2-5 0-13 1-6 1.5-11.5t-0.5-13.5q-3-2-9.5-4.5t-14.5-2.5h-5q-7 23-7.5 46.5t0.5 51.5v21q6 2 12 3t13 1q4 0 6-1 6-8 11-18t10-21l6-12t6-11q6 23 11.5 48t18.5 42q0-1 2-1h1q7 0 10-1 2 0 4.5-0.5t5.5-0.5h4q8-17 12.5-39t9.5-45q4-17 7.5-34.5t9.5-33.5q-1 1-3 1-3 0-9-2-3-1-6.5-2t-7.5-2zM404 368q-15 0-30 8t-18 22q-1 63 36 93 17-2 28-11 0-9-1-16.5t-2-15.5q-2-8-3-17t0-21q-3 0-6-0.5t-7-0.5q-5 0-10 0.5t-10 1.5q-4-7-3-13t4-11q10-12 22-12t20 11q8-3 9-8-10-10-29-10zM393 459q-1-2-2-5t-2-5q-2-5-4.5-11t-2.5-14q2-3 7-3h4q3 8 3.5 19t-1.5 19l-1 4zM319 364q-10 0-17 3-17 7-21.5 25t-2.5 36q2 20 11.5 37t23.5 19h3q5 0 8.5-1t6.5-2l9-3q3-12 4-31t-3-34q-1 1-6 1h-2q-15 0-27 3-6-23 2-35 5-6 11-8h3q5 0 13 2t12 2q6 0 11-6-8-3-18.5-5.5t-20.5-2.5zM308 430q1 0 1.5-0.5t1.5-0.5 1.5-0.5 2.5-0.5h1l2 1q2 7 1.5 14.5t-2.5 15.5q-11-12-12-28v-1h3zM672 289q-6 2-11 2h-17q-3 8-4.5 19.5t-2.5 22.5q-2 15-4.5 29t-10.5 24q2 1 8 3 1 1 4 1l2.5 22.5t4.5 27 7.5 26 11.5 21.5q15 19 35 19 15 0 35-12 11-22 8.5-40.5t-7.5-30.5q-10-20-27.5-34.5t-39.5-19.5q-3-54 8-80zM699 484q-16-16-23-40t-11-47q13 4 23.5 15.5t15.5 25.5q3 8 4 20t-7 26l-1 1zM562 369q-12 0-19 9-19 21-13 87 7-1 11.5-3.5t9.5-4.5q2-2 6-4v-9.5t1-11.5q0-24 3-48 18 7 21.5 28.5t4.5 41.5v8q0-1 2-1h2q7 0 12.5-3.5t10.5-7.5q2-17-2.5-27.5t-10.5-20.5q-2-2-2.5-4.5t-2.5-4.5q-5-4-7.5-8t-6.5-9l-2-3q-8-4-18-4zM464 361q1 11 0.5 20.5t-1.5 19.5q-1 6-1.5 12.5t-0.5 13.5l-6 1q-8 1-15 1.5t-12 3.5q0 7 3 10 1 3 8 3 2 0 4-0.5t4-0.5h9q2 11 1 23t-3 25q-3 22-4.5 43.5t4.5 40.5q1-1 3-1h1q11 0 17.5-4t10.5-9q-3-16-3-33.5t1-35.5q2-13 2-24.5t-1-21.5v-2h3q4 0 4.5 3t0.5 5q0 4 2 4 6-2 10-5t8-8q2-2 4-4.5t4-4.5q-3-2-9-3t-12-1q-7 0-15-2-1-19 0-38v-29q-3-1-6.5-1h-6.5q-2 0-4-0.5t-4-0.5z" />
<glyph unicode="&#xe93f;" glyph-name="paypal" horiz-adv-x="850" d="M480 540h-62l-27-123h20l22 99h62q16 0 28-9-4 14-15 23.5t-28 9.5zM635 560q15-18 22-43.5t-1-60.5q-7-33-23.5-61.5t-40.5-49-53-32.5-62-12h-90l-30-132h-127l5 25h107l30 132h91q32 0 61.5 11.5t53 32.5 40 49 23.5 61q5 26 3.5 44.5t-9.5 35.5zM500 664q24 0 48-9.5t41.5-28 25.5-47 0-66.5q-7-33-23.5-60t-40-46-53-29.5-61.5-10.5h-90l-31-124h-127l96 421h215zM496 528q7 25-6 43.5t-36 18.5h-62l-27-124h59q24 0 45.5 18.5t26.5 43.5z" />
<glyph unicode="&#xe940;" glyph-name="lastfm" horiz-adv-x="850" d="M473 369l-5 11-45 102q-11 27-36.5 44t-56.5 17q-21 0-40-8t-32.5-22-21.5-32.5-8-39.5q0-43 29.5-72.5t72.5-29.5q29 0 53 15t37 40l18-42q-20-24-48-38t-60-14q-29 0-54.5 11t-44.5 30-30 45-11 55 11 54.5 30 44.5 44.5 30 54.5 11q44 0 77.5-22.5t51.5-64.5q1-2 5.5-12t11-25 14-33 15.5-36q10-22 21.5-35t37.5-14 42 12.5 16 33.5-12.5 27.5-35.5 15.5q-42 14-63 30.5t-21 48.5 20.5 51.5 55.5 19.5q46 0 68-41l-30-15q-15 22-40 22-17 0-27-10t-10-26q0-21 17.5-28.5t44.5-16.5q37-12 54-28.5t17-50.5q0-35-27-58.5t-67-23.5q-37 0-58 17.5t-35 49.5z" />
<glyph unicode="&#xe941;" glyph-name="itunes" horiz-adv-x="850" d="M425 701q54 0 101.5-20.5t83-56 56-83 20.5-101.5-20.5-102-56-83.5-83-56-101.5-20.5-102 20.5-83.5 56-56 83.5-20.5 102 20.5 101.5 56 83 83.5 56 102 20.5zM425 204q49 0 91.5 18.5t74.5 50.5 50.5 75 18.5 92-18.5 91.5-50.5 74.5-74.5 50.5-91.5 18.5-91.5-18.5-74.5-50.5-50.5-74.5-18.5-91.5 18.5-92 50.5-75 74.5-50.5 91.5-18.5zM529 364q2-20-10.5-34t-31.5-16-33 10-16 31q-1 19 11.5 34.5t31.5 17.5q6 1 14 0.5t8-2.5v125l-131-30v-162q2-20-10.5-34t-31.5-16-33 10-16 32q-2 19 10.5 34.5t31.5 17.5q6 1 14.5 0.5t8.5-2.5v180l183 37v-233z" />
<glyph unicode="&#xe942;" glyph-name="flickr" horiz-adv-x="850" d="M660 440q0-22-8.5-41t-22.5-33.5-33-22.5-41-8q-21 0-40 8t-33.5 22.5-22.5 33.5-8 41 8 41 22.5 33 33.5 22 40 8q22 0 41-8t33-22 22.5-33 8.5-41zM399 440q0-22-8.5-41t-22.5-33.5-33-22.5-41-8-41 8-33.5 22.5-22.5 33.5-8 41 8 41 22.5 33 33.5 22 41 8 41-8 33-22 22.5-33 8.5-41z" />
<glyph unicode="&#xe943;" glyph-name="daytum" horiz-adv-x="850" d="M255 199h-52v157h52v-157zM334 199h-53v261h53v-261zM412 199h-52v209h52v-209zM491 199h-53v366h53v-366zM569 199h-52v261h52v-261zM647 199h-52v418h52v-418zM647 644q0-1-1-1h-442l-1 1v51q0 1 1 1h442l1-1v-51z" />
<glyph unicode="&#xe944;" glyph-name="drupal" horiz-adv-x="850" d="M529 619q5-4 22-16t35.5-34.5 33-55.5 14.5-78-17-82-45.5-63-66-40.5-79.5-14.5-80 15.5-67 42.5-46.5 64.5-17.5 81.5 15 76.5 34 54 37 34 24 15.5q15 8 28 14t31 20q8 7 14.5 18.5t9.5 34.5q12-14 25.5-29t24.5-23q17-11 34.5-17.5t36.5-17.5zM264 531q2-1 13.5 1t37.5 16q26 15 39.5 26t27.5 26q8 8 10 12.5t2 6.5q0 3-6 5-4 2 0 3l7 3.5t7 4.5q2 1 7.5 6.5t6.5 13.5q0 16-4 31-3-23-9.5-32t-16.5-17q-15-11-28.5-18t-16.5-9q-5-2-14.5-7.5t-21-13.5-23-18.5-19.5-23.5q-5-8-2.5-11.5t3.5-4.5zM531 281q2 2 2 4v4q-2 5-7 1-7-5-22-10t-37-5q-23 0-34.5 4t-18.5 9q-1 1-4 1t-7-3q-2-2-2-4.5t2-4.5q16-14 38-15.5t41 0.5 33 9.5 16 9.5zM451 319q-8-6-3-11 2-4 13 5 6 5 11.5 8t17.5 3 16-3.5 6-7.5q4-7 7-5 6 1 4 9-2 3-4 8t-7 8q-4 3-9.5 3.5t-11.5 0.5q-5 0-9-0.5t-10-2.5-11.5-6.5-9.5-8.5zM571 330q9-1 15.5 4t14.5 16q8 12 12 28.5t4 27.5-6 24-23 13q-8 0-20-7t-24.5-15-24-15.5-20.5-7.5q-11 0-23 8.5t-26.5 18-32 18-37.5 8.5q-16 0-29.5-6t-24-15.5-16.5-22-6-25.5q-2-30 20-44 7-5 16-7.5t29-2.5q17 0 36 8.5t36.5 19 33 19 25.5 8.5q8 0 17.5-8.5t19.5-18 19-18 15-8.5z" />
<glyph unicode="&#xe945;" glyph-name="amazon" horiz-adv-x="850" d="M636 282q-11-10-22-15-42-26-92-39.5t-98-13.5q-75 0-141 27.5t-117 75.5q-5 4-2.5 7.5t7.5 0.5q56-33 122-52t137-19q45 0 91.5 8.5t92.5 27.5q3 2 6.5 3t6.5 3q8 3 12-3t-3-11zM684 330q-4 5-25.5 7t-44.5-5q-13-5-23-12-4-3-3.5-5.5t4.5-2.5q5 1 10.5 1.5t11.5 1.5q14 1 27.5 0.5t18.5-5.5q3-3 1.5-11.5t-4.5-19-6.5-20.5-6.5-17q-2-4 1-5t7 2q17 15 25 39t9 39v3q0 6-2 10zM572 396q-8-8-21-19t-22-19q-6-4-14-1-14 12-19 19.5t-13 18.5q-25-28-52-37-20-5-40-5-35 0-59.5 22.5t-24.5 67.5q0 35 16.5 59t43.5 36q14 7 30.5 10.5t33.5 5.5q11 2 21.5 2.5t19.5 1.5v8q0 11-0.5 22t-5.5 20q-5 8-14 11.5t-18 3.5h-3q-15-2-26.5-10t-15.5-25q-2-10-10-11l-55 7q-2 1-5.5 3.5t-1.5 8.5q4 24 15.5 40.5t27 27 34 15.5 37.5 6h11q20 0 44-6.5t41-22.5q20-20 22-45.5t2-54.5v-91q0-20 7-31.5t15-22.5q2-4 2.5-8t-3.5-7zM472 499v12q-11 0-21.5-1t-19.5-3q-18-5-30-17.5t-12-36.5q0-20 8.5-31.5t25.5-11.5q2 0 4 0.5t4 0.5q20 5 31 27 8 15 9 29.5t1 31.5z" />
<glyph unicode="&#xe946;" glyph-name="reddit" horiz-adv-x="850" d="M525 646q0 12 5 22l-89 21q-7 0-9-2-5-3-5-8l-18-118q0-12 10-14h2q9 0 11 10l15 106zM574 582q-26 0-44 19t-18 45 18 45 44 19 43.5-19 17.5-45-17.5-45-43.5-19zM574 684q-15 0-25.5-11t-10.5-27 10.5-27 25.5-11 25.5 11 10.5 27-10.5 27-25.5 11zM619 552q-18 0-33-8.5t-24-22.5q5-3 10.5-6.5t10.5-7.5q5 8 14.5 13.5t21.5 5.5q17 0 29.5-11.5t12.5-28.5q0-15-9.5-26t-23.5-14l4-12t3-13q22 5 36.5 23t14.5 42q0 28-19.5 47t-47.5 19zM214 448q-11 5-18.5 15t-7.5 23q0 17 12.5 28.5t29.5 11.5q20 0 33-16l21 15q-9 12-23 19.5t-31 7.5q-28 0-47.5-19t-19.5-47q0-22 12-38.5t32-24.5q2 14 7 25zM421 239q-47 0-88.5 13t-72.5 36-49 53-18 65q0 34 18 64.5t49 53 72.5 35.5 88.5 13 88.5-13 72-35.5 48.5-53 18-64.5q0-35-18-65t-48.5-53-72-36-88.5-13zM421 546q-42 0-79-11t-64.5-30-43.5-44.5-16-54.5 16-54.5 43.5-44.5 64.5-30 79-11 78.5 11 64 30 43.5 44.5 16 54.5-16 54.5-43.5 44.5-64 30-78.5 11zM500 359q-9-9-28-15-11-3-23-5t-26-2-25.5 2-22.5 5q-21 7-28 15-9 9-18 0-4-4-4-9.5t4-9.5q7-8 17-13t22-9 26-5.5 29-1.5q34 0 56 7 25 8 39 22 4 4 4 9.5t-4 9.5q-9 9-18 0zM371 445q0-13-8.5-21.5t-20.5-8.5-21 8.5-9 21.5 9 21.5 21 8.5 20.5-8.5 8.5-21.5zM535 445q0-13-8.5-21.5t-20.5-8.5-21 8.5-9 21.5 9 21.5 21 8.5 20.5-8.5 8.5-21.5z" />
<glyph unicode="&#xe947;" glyph-name="scribd" horiz-adv-x="850" d="M483 299q0-27 14-52-3-3-6-6.5t-6-6.5q-40-41-100-41-57 0-101 32-45 34-67 97l1 1q-2 8-2 14 0 23 15 38.5t37 15.5 37-15.5 15-38.5-16-39q31-37 79-37 34 0 57 21 22 21 22 53 0 19-12 39-6 9-13 17t-16 14q-16 12-56 29-39 17-59 30-11 7-19.5 15t-16.5 17-13 18.5-9 18.5q-3 9-5 19t-2 21q0 50 40 86 39 36 95 36 36 0 76-17 30-13 54-40 18-16 18-40 0-23-15-39t-37-16-37 16-15 39q0 13 4 22-16 8-42 8-35 0-55-16-21-15-21-40 0-21 19-38 18-16 62-36 45-20 68-36 13-8 22.5-17.5t17.5-19.5q17-21 24-43 0-2 1-3-17-14-27-34.5t-10-45.5zM634 299q0-26-17.5-44t-42.5-18q-26 0-43.5 18t-17.5 44 17.5 44.5 43.5 18.5q25 0 42.5-18.5t17.5-44.5z" />
<glyph unicode="&#xe948;" glyph-name="mrwong" horiz-adv-x="850" d="M526 346q8-5 16-10.5t14-16.5 9-29.5 1-48.5q-1-18-6-28t-10-10.5-9.5 8.5-4.5 28q-1 43-9.5 61t-26.5 19q-7 0-19 0.5t-27 0.5v-51.5t-1-34.5q0-12-5-18.5t-10.5-7.5-10 3-4.5 13v97h-33t-20-1q-12-2-25.5-23t-10.5-64q1-16-3.5-23.5t-10.5-7.5-10.5 8-4.5 24q-1 15 0 29 1 12 2.5 24.5t4.5 20.5q6 16 26 31.5t51 16.5h34v64q-20 2-38.5 11.5t-23.5 31.5q-2 12-3.5 28t-3.5 35q-15 0-30.5-1t-29.5-1h-24.5t-14.5 1q-5 1-6 6.5t0.5 11.5 5.5 11 10 5q14 2 39 1.5t48-0.5q-2 30-1.5 55t1.5 30q2 11 6 20t12 7 14.5-11 3.5-35q-1-11-2-29t-2-38h96v87q0 10 9 17t16-7q2-4 3.5-14t2.5-23.5 1.5-29 0.5-30.5q23 0 40-0.5t22-1.5q14-1 23.5-3.5t9.5-11.5q0-5-4.5-7.5t-12-4-16-2-14.5-0.5h-17.5t-29.5-1q0-14-0.5-24.5t-0.5-15.5q-2-20-11.5-38.5t-30.5-24.5q-7-2-19-4 0-10 0.5-27t0.5-37q24-1 44.5-3t28.5-7zM384 526q1-23 5-41t12-23q10-6 23.5-7t25.5 1.5 21 9 9 16.5v45q-27 0-53-0.5t-43-0.5zM212 342q-17-4-20.5 0.5t-1.5 11.5q3 8 12 19 24 10 45 19 18 8 34.5 15t24.5 10q7 3 17.5 6t18 4 10-3-6.5-14q-8-11-23.5-21.5t-34.5-19.5-38.5-16-36.5-11zM660 368q1-7-2.5-9t-9-1.5-12.5 2-13 2.5-17 5.5-23 10-22.5 10-14.5 5.5l-10 2.5t-11.5 4.5-8 7.5-0.5 11.5q4 11 16.5 10.5t40.5-11.5q14-6 29-12.5t27.5-12.5 21-12 9.5-13z" />
<glyph unicode="&#xe949;" glyph-name="github" horiz-adv-x="850" d="M425 407q30 0 56-9t45.5-24 31-35 11.5-43-11.5-43-31-35-45.5-23.5-56-8.5-56 8.5-45.5 23.5-31 35-11.5 43q0 27 16 50t42 38q-5 11-7.5 22.5t-2.5 23.5q0 26 11 51-20 16-32 39.5t-12 51.5q0 24 9 45.5t25 37.5 37.5 25.5 46.5 9.5q34 0 63-20l85 47v-79l-41-22q7-6 11.5-19.5t4.5-24.5q0-24-9.5-45.5t-26-37.5-38-25.5-46.5-9.5h-4q-2 0-3-8.5t-1-15.5 1-13 3-11q3 0 6 0.5t6 0.5zM417 627q-23 0-39.5-16t-16.5-39 16.5-39 39.5-16 39.5 16 16.5 39-16.5 39-39.5 16zM425 254q27 0 45.5 12.5t18.5 29.5q0 18-18.5 30.5t-45.5 12.5q-26 0-45-12.5t-19-30.5q0-17 19-29.5t45-12.5z" />
<glyph unicode="&#xe94a;" glyph-name="email" horiz-adv-x="850" d="M315 439l-126-90v180zM660 607l-235-168-236 168v61h471v-61zM660 529v-180l-126 90zM507 420l153-110v-60h-471v60l153 110 83-59z" />
<glyph unicode="&#xe94b;" glyph-name="apple" horiz-adv-x="850" d="M556 467q0-27 10-45t22-29 22.5-16l10.5-5q-1-2-8.5-22t-25.5-45q-15-22-31.5-39.5t-41.5-18.5q-12 0-21 2.5t-17.5 6.5-18 7-23.5 3-23.5-3-18-6.5-17-6.5-20.5-4q-23-1-42 18.5t-34 41.5-28 51.5-18.5 61.5-2.5 64.5 19 59.5 42 42.5 57 16.5q12 0 23.5-3t21.5-6.5 19-7 16-3.5 17 4 22 8 25.5 7 27.5 2q6 0 16.5-1.5t23-6.5 25-14 23.5-24q-1-1-9-6.5t-18-16.5-17.5-28-7.5-39zM495 642q-12-15-31.5-25t-39.5-8q-3 20 5.5 39.5t20.5 32.5q13 15 32.5 25t38.5 11q2-21-5.5-40.5t-20.5-34.5z" />
<glyph unicode="&#xe94c;" glyph-name="addme" horiz-adv-x="850" d="M634 498v-105h-157v-156h-105v156h-157v105h157v157h105v-157h157z" />
<glyph unicode="&#xe94d;" glyph-name="yahoo" horiz-adv-x="850" d="M585 522q-5-2-26-18.5t-45-37.5-44-41.5-23-29.5q-1-3-1-18t0.5-32 1-32.5 1.5-19.5q3-1 13.5-1h45.5t15-1l-2-25q-4 0-17.5 0.5t-31.5 0.5h-72q-8 0-22.5-0.5t-30.5-1-31-0.5h-23l4 24q4 0 13.5 0.5t20 1 20 2.5 13.5 7q2 2 3 16t1 30.5-0.5 31.5-1.5 20q-1 3-9.5 16t-21 31-28 38.5-30 39.5-26.5 33.5-19 21.5h-69v26h236v-26h-73q12-20 25.5-40.5t26.5-39 24.5-35 18.5-26.5l94 89h-55l-8 26h208l-19-19q-1 0-1 1l-6-8h-37q-4 0-7-2t-5-2zM618 487q3 0 13-1.5t21.5-2.5 21.5-2 12-1l-36-154-32 3v158zM633 302l18-1-5-37-17 2-16 1v38z" />
<glyph unicode="&#xe94e;" glyph-name="vimeo" horiz-adv-x="850" d="M189 492q23 26 47 47 20 18 45 34t48 21q24 4 37.5-11t21-39 11.5-53 10-51q11-43 20-66.5t19-23.5 27.5 22 37.5 59q10 18 10.5 34.5t-7.5 26.5-23 11.5-35-10.5q5 31 24 53.5t43 35.5 50.5 16 46.5-6 30.5-31 4.5-57q-10-53-39-101t-63-86-66.5-64.5-49.5-36.5q-17-11-32-10t-28 8-23 18.5-16 22.5q-4 8-11 27t-14.5 43-16 50.5-16 49-13.5 38-9 19.5q-5 5-14 4t-17-5q-10-4-21-13l-19 24z" />
<glyph unicode="&#xe94f;" glyph-name="skype" horiz-adv-x="850" d="M380 682q64 6 107.5-8t76.5-43q19-17 24.5-33.5t2-30-13.5-23-22-10.5q-12-2-25 9.5t-29.5 25.5-37 26-47.5 13q-27 0-48.5-12.5t-29-29 2-33.5 43.5-25 68-15.5 63.5-19 53-30.5 36.5-50q13-32 4.5-63t-31-56-56-41.5-70.5-18.5-65 1-50 10.5-39.5 19.5-33.5 27q-18 17-24 34t-3 31.5 13 24 25 10.5q14 1 26-6.5t22-17 18-19.5 16-15 25-11.5 37.5-9 41.5 2.5 36 23q17 20 13.5 35t-18.5 26-37 17.5-43 9.5q-29 4-60.5 14.5t-56.5 28-40 41.5-12 56 15.5 56.5 31 41 42 26 48.5 11.5z" />
<glyph unicode="&#xe950;" glyph-name="heart" horiz-adv-x="850" d="M655 552q10-31 1-67.5t-28.5-72-46.5-68.5-55.5-58.5-53.5-40.5-41-15q-15 0-41.5 15t-56 40.5-58.5 58.5-50 68.5-31 71.5 0 68q16 52 50 74t71 22q30 0 50.5-12.5t33-27.5 18.5-27.5 8-12.5 8 12.5 19 27.5 33.5 27.5 50.5 12.5q36-1 70-23t49-73z" />
<glyph unicode="&#xe951;" glyph-name="quora" horiz-adv-x="850" d="M634 452q-2-56-29-102t-71-75q11-15 21-22.5t18-10.5q9-4 16-2v-37q-15-7-31-9-14-2-29.5 2.5t-29.5 21.5q-13 16-22 31-29-9-60-9-43 0-80.5 16.5t-64.5 45.5-42.5 67.5-13.5 82.5q1 44 19 82.5t47.5 67.5 68 45.5 81.5 16.5 81-16.5 65-45.5 42-67.5 14-82.5zM537 456q1 32-6.5 60.5t-21.5 49.5-33.5 33.5-41.5 12.5q-23 0-43-12.5t-35.5-33.5-25-49.5-10.5-60.5 6.5-60.5 21.5-49.5 33-33.5 42-12.5q16 0 26 5-2 5-4.5 9t-4.5 8q-6 8-12.5 11.5t-12.5 4.5q-7 1-13-1v37q16 6 33 5 14-1 31-9t31-30q17 22 27.5 51.5t12.5 64.5z" />
<glyph unicode="&#xe952;" glyph-name="hyves" horiz-adv-x="850" d="M559 672h33q4 0 9.5-5t9.5-12.5 6-15 0-12.5q-1-4-5.5-6.5t-10-5-10.5-4.5-7-5q-4-4-5.5-12.5t-1.5-18.5 0.5-21 0.5-20v-194q0-8-0.5-21t2.5-15q2-3 9.5-2.5t11.5-0.5q9-3 16.5-16.5t0.5-24.5q-2-3-9-5.5t-14-4.5q-14-7-36.5-13.5t-43.5-4.5q-6 1-12.5 5t-12.5 10-10 12.5-3 12.5q1 8 16 15 4 2 11.5 2t11.5 3q5 5 3.5 19.5t-2.5 25.5v24q0 6 0.5 13.5t-1.5 9.5-8.5 2.5-14 0-15-1.5-10.5-1q-27-4-45-6.5t-41-10.5q-7-2-19-5t-17-10q-2-3-2.5-10t0-15.5 1.5-16.5 1-13q1-5 0-12.5t1-11.5q3-5 12.5-4t11.5 0q8-3 16-12t6-20q-1-9-11.5-15.5t-25-10.5-30-6-26.5-3q-8-1-12.5-1t-10.5 2q-10 2-20 12.5t-9 20.5q1 8 10 13t17 7q2 1 6 1.5t5 2.5q3 4 2.5 15.5t-2.5 20.5q-3 26-4 56t-1 57q-1 32-2 58t-1 59v21.5t-2 15.5q-3 3-10.5 3.5t-12.5 2.5q-9 4-14 10.5t-10 17.5v9q8 14 26 19.5t39 9.5q15 3 30 5t27 1 21-6.5 13-17.5q2-5 2.5-12t-2.5-12q-3-4-8.5-6t-12-3.5-12-3.5-7.5-5-2-12v-18q0-28-2-50t0-51q1-4 2-13.5t4-11.5q5-2 11 0t11 3q29 6 50 10.5t53 7.5q4 1 10.5 1.5l13 1t12 1 7.5 2.5q6 5 4.5 16.5t-2.5 18.5q-2 22-2 39t2 37l2.5 20t-3.5 16q-2 3-10 3.5t-11 2.5q-11 5-21.5 15.5t-5.5 26.5q2 4 7 7.5t10 5.5q17 8 35.5 11t38.5 7z" />
<glyph unicode="&#xe953;" glyph-name="bebo" horiz-adv-x="850" d="M448 233h-47q-38 0-72 15.5t-59.5 41.5-40 60.5-14.5 72.5v235q0 20 16.5 33t36.5 13q19 0 35.5-13t16.5-33v-235q0-38 21.5-61.5t59.5-23.5h47q19 0 36 6t29.5 16.5 20 24.5 7.5 31q0 34-15 56.5t-32 22.5h-93q-19 0-32.5 10t-13.5 29 13.5 29 32.5 10h93q29 0 54.5-13t44.5-36 30-54 11-67q0-35-14.5-66t-40-54-59.5-36.5-72-13.5z" />
<glyph unicode="&#xe954;" glyph-name="virb" horiz-adv-x="850" d="M176 602h101l81-236 79 236h105l-131-366h-104zM673 549q0-21-15.5-36.5t-37.5-15.5-37 15.5-15 36.5q0 22 15 37.5t37 15.5 37.5-15.5 15.5-37.5z" />
<glyph unicode="&#xe955;" glyph-name="blip" horiz-adv-x="850" d="M215 526q60 0 114-23.5t94-63.5 63.5-93.5 23.5-113.5h-86q0 42-15.5 80.5t-44.5 67.5-68 45-81 16v85zM215 676q91 0 172-35t142-95.5 96-141.5 35-172h-85q0 74-28.5 139.5t-77.5 114-114.5 77-139.5 28.5v85zM189 258l26 26v78l131-130h-78l-26-27z" />
<glyph unicode="&#xe956;" glyph-name="digg" horiz-adv-x="850" d="M686 558v-153h-52v-156h-231v156h-109v-26q27-2 48.5-20.5t21.5-44.5v-49q0-7-5-11.5t-13-4.5h-139q-8 0-13 4.5t-5 11.5v49q0 13 7 24.5t18.5 20 25.5 14 28 6.5v26h-105v156q20 17 41 31 18 11 38.5 21t38.5 10q17 0 38-10t38-21q20-14 41-31v-3h27v109h183v-109h78zM320 314q0 9-7.5 15.5t-18.5 6.5h-35q-11 0-18.5-6.5t-7.5-15.5v-22h87v22zM346 542q-19 17-37 27.5t-28 10.5-28-10.5-38-27.5v-84h131v84zM477 536h78v79h-78v-79zM634 514h-26v-30h-183v26h-27v-52h53v-157h56v78h22v-78h52v157h53v56z" />
<glyph unicode="&#xe957;" glyph-name="ebay" horiz-adv-x="850" d="M738 572l-84-156v-82h-64v82l-19 39v40q0 20-8.5 35t-40.5 20l-11 22h69l45-101 49 101h64zM499 405q10 0 15.5 6t7 15 1.5 18.5v16.5q-9-1-16.5-1.5t-13.5-2.5-9-8-3-17q0-9 3-18t15-9zM501 551h11t10-1l49-95v-44q0-8 0.5-16t1.5-16h-46l-2 22q-8-12-18.5-18.5t-27.5-6.5q-8 0-11 1v22q0 18-2 40t-14 35q12 10 31 12t40 1v13q0 11-3 18t-17 7q-13 0-15.5-8t-2.5-18h-48q0 30 18 41 15 11 46 11zM420 400q0 25-2 41t-18 16q-15 0-17.5-16t-2.5-41q0-32 3.5-46t16.5-14 16.5 14 3.5 46zM433 430q0-20 8-34.5t27-18.5q-1-12-3-23.5t-7-21-14-15.5-24-6q-30 0-41 22h-1v-18h-46v34q1 0 1 1 32 13 34 38h-35v17h36q2 23-4 41t-32 29v80h48v-89h1q8 11 17 15t22 4q11 0 18.5-3t13.5-8q-19-13-19-44zM239 463q-15 0-23-4t-11.5-9-4-11.5-0.5-10.5h80q0 5-0.5 11t-4 11.5-12 9-24.5 3.5zM332 388v-39q-12-5-25-8-14-3-31-5t-37-2q-43 0-68 6t-38.5 16.5-17.5 25-4 31.5q0 15 3.5 29t17 24 38.5 16 69 6q21 0 37.5-1.5t29.5-3.5q14-3 26-8v-70h-132q0-7 0.5-14.5t4.5-14 12-11 22-4.5q24 0 31 8.5t7 18.5h55z" />
<glyph unicode="&#xe958;" glyph-name="mixx" horiz-adv-x="850" d="M565 405q0-3 0.5-6t0.5-6q0-32-12-59.5t-32-48-47.5-32.5-58.5-12q-45 0-81 24.5t-54 63.5q14-47 52.5-77t88.5-30q30 0 57 11.5t47 32 31.5 47.5 11.5 58q0 19-4 34zM428 280q-31-5-59 3t-48 25q17-20 41-31t53-11q42 0 73.5 23.5t42.5 58.5q-14-26-41-44.5t-62-23.5zM425 323q-17-7-34.5-8t-31.5 3q9-5 20.5-8.5t24.5-3.5q32 0 54.5 19.5t23.5 47.5q-8-16-22.5-29t-34.5-21zM407 362q-2 0-6 5.5t-8 16.5l-99 277q-3 9 2 19 4 9 14 12 3 1 8 1 18 0 23-19l67-285q3-11 2.5-18.5t-2.5-8.5h-1z" />
<glyph unicode="&#xe959;" glyph-name="gdgt" horiz-adv-x="850" d="M216 627l26 26h287l26-26v-154l79 154v-157l-79-131v-130l-26-27h-261l-26 27v52h235v78h-235l-26 26v262zM294 418h183v157h-183v-157z" />
<glyph unicode="&#xe95a;" glyph-name="star" horiz-adv-x="850" d="M202 502q-18 20-11 35t34 15h117l55 116q11 25 27.5 25t27.5-25l56-116h116q28 0 34.5-15t-11.5-35l-1-1-88-108 45-131q9-26-2.5-35.5t-35.5 2.5l-140 70-140-70q-25-12-36-2.5t-2 35.5l45 131-89 108-1 1z" />
<glyph unicode="&#xe95b;" glyph-name="bing" horiz-adv-x="850" d="M425 555q49 0 91.5-13t74.5-35.5 50.5-53 18.5-64.5q0-35-18.5-65t-50.5-53-74.5-36-91.5-13q-48 0-90.5 12.5t-74 34.5-50.5 51.5-20 63.5h-1v309h79v-189q22 15 41.5 25t38 16 37.5 8 40 2zM425 278q31 0 58 9t47 24 32 35 12 43-12 43-32 35-47 24-58 9-58.5-9-47.5-24-32-35-12-43 12-43 32-35 47.5-24 58.5-9zM524 390q0-15-8-28t-21.5-23-31.5-15.5-38-5.5q-21 0-39 5.5t-31.5 15.5-21 23-7.5 28q0 31 28.5 52t70.5 21q41 0 70-21t29-52z" />
<glyph unicode="&#xe95c;" glyph-name="yelp" horiz-adv-x="850" d="M293 624q-3 4-6 7.5t-3.5 7.5 3.5 10 16 15q9 7 22 12t26 7.5 25 3 19-0.5q30-6 30-28l1-170q1-10-3.5-17.5t-11.5-9.5q-7-1-15 4.5t-13 13.5zM471 432q-4 8-2.5 18t8.5 18l50 60q7 8 17 8t21-8q5-5 11.5-12.5t12.5-16 10.5-16.5 6.5-12q3-8 1-20t-14-14l-88-17q-10-2-19.5 1.5t-14.5 10.5zM479 337q-5 9-6 17.5t3 11.5 13 3 19-2l79-23q10-2 15-12t1-23q-2-6-8-16l-12-20q-7-11-16-24-5-9-19.5-10t-19.5 8zM383 336q6 8 15.5 12.5t16.5 4.5q7-1 11.5-8.5t4.5-17.5l-2-105q-1-11-13.5-18.5t-21.5-3.5l-66 22q-9 4-12 17.5t4 21.5zM368 430q10-4 16-12t5-16q-2-8-9-16t-16-12l-91-31q-9-4-18.5 2.5t-11.5 17.5q-1 5-1 17.5v26.5q0 16 1 35 3 14 12 21.5t18 3.5z" />
<glyph unicode="&#xe95d;" glyph-name="etsy" horiz-adv-x="850" d="M346 637v-183h116q21 0 34.5 4t21.5 11q9 8 14 25.5t6 37.5h17v-183h-17q-4 38-10 49-6 13-21 21-15 9-45 9h-116v-148q0-18 2.5-28.5t4.5-14.5 5.5-7.5 6.5-5.5q8-5 30-5h83q20 0 35 2t25 5q9 3 18 9.5t18 15.5q11 12 22.5 32t22.5 40h15l-42-131h-377v27h18q8 0 16.5-1t16.5 4q5 3 11.5 6t8.5 9 5 17 3 31v287q0 25-4.5 37.5t-9.5 17.5q-6 8-19 9t-28 1h-18v26h377l5-105h-14q-4 20-8 32t-9 20q-9 14-27 22-11 5-51 5h-142z" />
<glyph unicode="&#xe95e;" glyph-name="xing" horiz-adv-x="850" d="M594 190h-104l-105 183 157 288h105l-157-288zM202 321l78 131-52 104h105l52-104-78-131h-105z" />
<glyph unicode="&#xe95f;" glyph-name="rss" horiz-adv-x="850" d="M242 310q22 0 37-15.5t15-36.5q0-22-15-37.5t-37-15.5-37 15.5-15 37.5q0 21 15 36.5t37 15.5zM190 676q97 0 182.5-37t149.5-101 101-150 37-183h-98q0 77-29.5 145t-80 118.5-118 80-144.5 29.5v98zM190 493q59 0 111.5-22.5t91.5-61.5 61.5-91.5 22.5-112.5h-96q0 40-15 75t-41 61-61 41-74 15v96z" />
<glyph unicode="&#xe960;" glyph-name="icq" horiz-adv-x="850" d="M651 422q14-26 6-58-9-31-37-46-27-14-59-4-11 3-22 9 6-24 0-45t-23-32q-18-11-40-5-18 6-38 27l-1-4q-9-32-37-46-29-14-60-5-17 4-31 15-4 5-7.5 10t-7.5 10q-15 29-5 59l3 9 12 19q-23-7-47-2-13 2-20 9-5 2-7.5 5.5t-5.5 7.5q-10 19-4 35 2 8 6 15t12 13l10 9-5 1q-18 3-30 15-10 7-16 17-14 26-2 53 11 28 39 43 29 15 59 8l16-5-5 7q-15 26-10 56 4 28 26 41 19 10 40 4 25-6 41-31l6-12 3-5 1 5v1q0 15 12 26.5t26 19.5q28 13 60 6 31-8 45-32l2-3q18-28 7-61l-7-17 22 5q8 1 16.5 1t16.5-2q12-4 17-10.5t19-16.5v-1q0-9 3.5-18.5t-0.5-20.5q-10-25-44-41 6-3 12-5.5t11-6.5q6-4 10-9.5t8-11.5zM485 477l-3-3 1-3 2-4 83 10q6 1 11.5 2t10.5 4q25 10 32 28l1 7-3 9q-6 12-23 14-20 2-36-5l-8-3zM437 610l1-27 7-75q10-5 19-11l61 73q3 5 5.5 9.5t4.5 10.5l2 14q0 13-5 23-9 18-31 22-19 8-38-3-9-5-16-12.5t-9-17.5zM322 614q-1-16 8-35l3-7 60-64 10 3-13 79q-1 6-3.5 11t-4.5 10q-12 23-31 28-8 5-15 0-13-8-14-25zM223 474q7-15 26-18l6-1 98 12q3 10 10 20l-59 42-18 8q-20 4-38-6-20-8-26-28-6-16 1-29zM311 370l20 17q6 5 12 11t14 12l-2 5-5 13-54-10q-7-1-20-8-23-10-28-27l-1-6 2-7q4-8 21-10 18-2 35 7zM411 304q0 20-3 38t-4 35q-5 0-10.5 2.5t-10.5 4.5l-57-66q-7-8-10-19l-3-15q0-6 2-12t4-11q8-16 29-22 20-5 37 5 17 7 25 27l1 7v26zM389 410q13-13 31-13t31 13q8 6 11 14.5t3 17.5q0 17-14 31-12 12-31 12-17 0-31-12-7-8-10.5-15t-3.5-16q0-20 14-32zM514 294q1 18-8 35l-4 6-17 22-29 28-9-4-11-4 10-58 8-22q12-25 31-29 9-2 15 2 11 5 14 24zM632 385q0 18-10 29-8 14-25 19l-7 1-27-1-76-7-2-8-5-10 71-57q5-8 18-11 19-7 38 3t23 29z" />
<glyph unicode="&#xe961;" glyph-name="www" horiz-adv-x="850" d="M364 608l62-223 63 223h152v-23l-55-115q17-6 31.5-16t23.5-25q8-15 13.5-32.5t5.5-37.5q0-25-5.5-46t-18.5-38q-26-33-65-33-31 0-52 20-23 19-33 54l35 15q5-10 9.5-18t11.5-14q12-12 30-12t30 21q13 20 13 51 0 17-3.5 33t-10.5 25q-8 11-19.5 19t-28.5 8h-30v9l73 114h-77l-88-306h-5l-64 226-65-226h-4l-103 347h45l62-223 42 150-20 73h45z" />
<glyph unicode="&#xe962;" glyph-name="msn" horiz-adv-x="850" d="M522 271q-17 12-32 35-1 11-2.5 25t-6.5 31q11-6 30.5-12t48.5-6q8 0 15.5 0.5t15.5 1.5q26 4 45.5 20.5t33.5 41.5q3-21 0-43t-10-42.5-17.5-37.5-20.5-29q-12-14-20-17.5t-13-3.5q-11 0-27 9.5t-40 26.5zM422 399q-13 29-19 53t-8 41q-2 7-2 12.5v10.5q0 2 0.5 3t0.5 3q1 3 2 3 2 0 6-4.5t12-16.5 18.5-33 24.5-53q15-37 20-67.5t6-46.5v-8q-8 5-24.5 30t-36.5 73zM589 359q-8-1-14.5-1.5t-14.5-0.5q-38 0-58.5 10t-24.5 13q-3 10-6.5 19.5t-7.5 20.5q-8 20-16 36l-15 30q35 20 82 20 24 0 47.5-5.5t43.5-14.5 35-21 21-26q2-2 2.5-5t2.5-6q-14-28-32.5-46.5t-44.5-22.5zM391 325q-12 0-27.5 5t-34.5 18q-5 22-3 45t16 44q14 20 26.5 27.5t22.5 9.5q4-17 10-37t15-41q4-11 8-20t9-18q-5-10-12.5-19t-17.5-12q-4-2-12-2zM389 487q-12-2-27-11t-31-32q-13-20-16.5-42t-0.5-43q-29 22-63 65-41 55-61.5 90t-29 56-8 29.5 1.5 10.5q1 3 10 3 12 0 29.5-5.5t37.5-14 40-19.5 38-22q21-14 41.5-28t37.5-34q0-2 1-3zM697 567q-2-31-7.5-62.5t-16.5-59.5q-8 16-23.5 29.5t-37 23.5-47 15.5-51.5 5.5q-49 0-89-21-2 4-4 6 9 31 32 63.5t51 59.5 57.5 46.5 52.5 24.5q5 1 8.5 1.5t7.5 0.5q21 0 37-16 16-17 24-48.5t6-68.5zM474 289q1-11-0.5-25t-3.5-27-5-22-6-11q-1-1-4-1-13 0-27.5 10t-28 23.5-25 27.5-17.5 23q-13 16-22 42 31-18 56-18 9 0 17 3 11 5 18.5 13t13.5 18q9-17 17.5-29t15.5-19q0-2 0.5-4t0.5-4z" />
<glyph unicode="&#xe963;" glyph-name="qik" horiz-adv-x="850" d="M587 439q5-8 9.5-17t10.5-17.5 13.5-14.5 19.5-9q-1-9-8.5-15t-17-9-20-2-18.5 7q-7 4-12.5 14t-10.5 18q-6 9-11 17.5t-10 16.5q-3-17-5.5-35.5t-6.5-36.5q-11 0-21 0.5t-17.5 3.5-11.5 9-3 17q0 5 3.5 27.5t8 50 9 54.5 6.5 42q0 2 1 2 24 2 39.5-2.5t13.5-27.5q-2-20-6.5-44t-6.5-42q9 7 16 16 7 8 14 15.5t15 15.5q4 4 8.5 8t9.5 6q12 5 28.5 3t33.5-1q-4-5-14.5-14.5t-22-20-22-20.5-14.5-15zM446 570q16-3 19-15 5-13-2-21.5t-16-12.5q-12-5-25-1.5t-15 15.5q-5 16 4.5 23.5t23.5 11.5h11zM403 505q17 0 31.5-1t19.5-11q3-7 2-16.5t-2-17.5q-4-26-8-52.5t-8-49.5q-15-1-29.5 0t-20.5 9q-4 6-3.5 16t2.5 19q4 26 8 52.5t8 49.5v2zM309 514q30-2 47-20t15-52q-2-17-5-33t-5-33q-3-17-5.5-33t-4.5-34h-27q-12 0-17.5 6.5t-6.5 15.5 0.5 20 3.5 20q-5-3-9-7.5t-10-6.5q-5-2-9-3l-8-2q-38-4-59 16.5t-19 51.5q1 20 8 34.5t18 26.5q14 16 37 25.5t56 7.5zM297 400q6 5 11 14.5t6.5 20-0.5 20-9 14.5q-4 2-10.5 3.5t-11.5 0.5q-9-1-17-6-6-5-10.5-14t-6.5-19.5 0-20.5 10-15q9-5 20.5-4t17.5 6z" />
<glyph unicode="&#xe964;" glyph-name="aol" horiz-adv-x="850" d="M483 705q27 0 45.5-18.5t18.5-44.5-18.5-44-45.5-18q-26 0-45 18t-19 44 19 44.5 45 18.5zM229 314l10 3q11 3 25.5 9t30 16.5 29.5 26 25 37.5q2 2 2.5 7t2.5 19q5 55 21.5 86.5t49.5 50.5l5 2 5-3q17-9 31-12l8-1v-14q0-2 1-2 0-6 1-7l1-3 4-2q18-6 38-6 18 0 33.5 4t26.5 9l9 4 27-61-8-4q-28-14-50-20.5t-42-6.5q-10 0-18.5 1t-17.5 2h-4q-2 0-3 0.5t-2 0.5q-2 0-3.5-1t-2.5-7q-1-1 2-3l2-2q2 0 3-1 95-47 145-147l5-8-67-38-5 9q-5 8-13.5 20t-23 25-34.5 26-47 25l-4 2q-3 0-4-3l-7-9q-11-14-23-28.5t-29-28-40.5-25-56.5-19.5l-9-3z" />
</font>
</defs>
</svg>
